(Classical) Mendelssohn - Concentro for Violin and Orchestra; Bruch - Concerto No.1 for Violin and Orchestra (Midori; Berliner Philharmoniker, Mariss Jansons) - 2003, FLAC (image+.cue) lossless


Статистика раздачи [Обновить пиров]
Размер:  246 MB   |    Зарегистрирован:  1 год 1 месяц   |    Скачан:  0 раз

Полного источника не было: Никогда

 
   
 
 
 

[Цитировать]

Mendelssohn - Concentro for Violin and Orchestra;
Bruch
- Concerto No.1 for Violin and Orchestra
(Midori; Berliner Philharmoniker, Mariss Jansons)
Жанр: Classical
Страна-производитель диска: E.U.
Год издания диска: 2003
Издатель (лейбл): Sony Classics
Номер по каталогу: SK 87740 0
Дата записи: 2002-2003
Аудиокодек: FLAC
Тип рипа: image+.cue
Битрейт аудио: lossless
Продолжительность: 0:53:17
Источник: JVA
Наличие сканов в содержимом раздачи: да
Треклист:
Felix Mendelssohn (1809-1847)
Concentro for Violin and Orchestra e-moll, Op.64
01. I. Allegro molto appassionato (13:08)
02. II. Andante (8:10)
03. III. Allegretto non troppo — Allegro molto vivace (6:48)
Max Bruch (1838-1920)
Concerto No.1 for Violin and Orchestra g-moll, Op.26
04. I. Vorspiel. Allegro moderato (8:21)
05. II. Adagio (9:18)
06. III. Finale. Allegro energico (7:32)
Исполнители:
Midori, violin
Berliner Philharmoniker
Mariss Jansons

Mendelssohn Concerto recorded live at the Philharmonie, Berlin, Germany, January 11-13, 2003.
Bruch Concerto recorded live at the Philharmonie, Berlin, Germany, June 18-19, 2002.

Лог создания рипа

Exact Audio Copy V0.99 prebeta 5 from 4. May 2009
Отчёт EAC об извлечении, выполненном 27. августа 2014, 16:15
Mariss Jansons: Midori & Berliner Philharmoniker / Mendelssohn & Bruch: Violin Concertos
Дисковод: ATAPI iHAS124 E Adapter: 0 ID: 0
Режим чтения : ДостоверностьИспользование точного потока : ДаОтключение кэша аудио : ДаИспользование указателей C2 : Нет
Коррекция смещения при чтении : 6Способность читать области Lead-in и Lead-out : НетЗаполнение пропущенных сэмплов тишиной : ДаУдаление блоков с тишиной в начале и конце : НетПри вычислениях CRC использовались нулевые сэмплы : ДаИнтерфейс : Встроенный Win32-интерфейс для Win NT/2000
Выходной формат : Пользовательский кодировщикВыбранный битрейт : 768 kBit/sКачество : ВысокийДобавление ID3-тэга : НетУтилита сжатия : C:\Program Files\Exact Audio Copy\Flac\flac.exeДополнительные параметры : -6 -V -T "ARTIST=%a" -T "TITLE=%t" -T "ALBUM=%g" -T "DATE=%y" -T "TRACKNUMBER=%n" -T "GENRE=%m" -T "COMMENT=%e" %s -o %d
TOC извлечённого CD
Трек | Старт | Длительность | Начальный сектор | Конечный сектор --------------------------------------------------------------------- 1 | 0:00.00 | 13:07.40 | 0 | 59064 2 | 13:07.40 | 8:09.70 | 59065 | 95809 3 | 21:17.35 | 6:53.72 | 95810 | 126856 4 | 28:11.32 | 8:20.60 | 126857 | 164416 5 | 36:32.17 | 9:17.73 | 164417 | 206264 6 | 45:50.15 | 7:31.55 | 206265 | 240144
Характеристики диапазона извлечения и сообщения об ошибках
Выбранный диапазон
Имя файла C:\EAC\Midori & Berliner Philharmoniker - Mendelssohn & Bruch Violin Concertos\Midori - Mendelssohn & Bruch Violin Concertos.wav
Пиковый уровень 99.1 % Качество диапазона 100.0 % CRC копии 896BC043 Копирование... OK
Ошибок не произошло
AccurateRip: сводка
Трек 1 точность не определена (достоверность 22) [6E8C3E60], AccurateRip вернул [2FEBDAB8]Трек 2 точность не определена (достоверность 23) [C0944FC8], AccurateRip вернул [C698CBC7]Трек 3 точность не определена (достоверность 23) [20B19B60], AccurateRip вернул [9BE9E6A0]Трек 4 точность не определена (достоверность 22) [5661A10B], AccurateRip вернул [04026495]Трек 5 точность не определена (достоверность 23) [56A3FD35], AccurateRip вернул [BE55FDB6]Трек 6 точность не определена (достоверность 19) [6A2629F6], AccurateRip вернул [2DEFBAA5]
Ни один трек не прошёл проверки на точностьВ вашей базе может быть иной вариант штамповки диска
Конец отчёта

Лог проверки качества

Скриншот спектра частот

[teatrix.ru].t9918.torrent 
Торрент: Зарегистрирован [ 2015-10-25 20:37 ] · 7370CBD925ECC7BBF9426AD773227C739227BF50

Скачать .torrent

Скачать

21 KB

Статус: проверено
Скачан: 0 раз
Размер: 246 MB
terms.php



Быстрый ответ

Имя:

      
Для отправки сообщений необходимо включить JavaScript
Показать сообщения:    

Текущее время: 05-Дек 19:35

Часовой пояс: UTC + 3


Вы можете начинать темы
Вы можете отвечать на сообщения
Вы не можете редактировать свои сообщения
Вы не можете удалять свои сообщения
Вы не можете голосовать в опросах
Вы не можете прикреплять файлы к сообщениям
Вы можете скачивать файлы