(Classical) Johannes Brahms — Piano Concertos № 1 & 2 (Op 15, 83) (Stephen Kovacevich; Sir Colin Davis) — 2010, APE (image+.cue) lossless


Статистика раздачи [Обновить пиров]
Размер:  468 MB   |    Зарегистрирован:  1 год 1 месяц   |    Скачан:  0 раз

Полного источника не было: Никогда

 
   
 
 
 

[Цитировать]

Piano Concertos № 1 & 2- Жанр: Classical
Страна-производитель дисков: Россия
Год издания дисков: 2010
Издатель (лейбл): Elite Classics
Номера по каталогу: AS-110-a / AS-110-b
Композитор: Johannes Brahms
Аудио кодек: ape
Тип рипа: image+.cue
Битрейт аудио: lossless
Продолжительность: 02h28'00"
Источник: собственный рип
Наличие сканов в содержимом раздачи: да-

Треклист

CD1 – 01h15'54"
Piano Concerto № 1 d-moll / in D minor, Op 15
01. I. Maestoso – Poco piu moderato [00h21'38"]
02. II. Andante [00h15'23"]
03. III. Rondo: Allegro non troppo – Piu animato – Tempo I [00h11'08"]
London Symphony Orchestra, cond. Sir Colin Davis, Piano – Stephen Kovacevich
04. Scherzo Op 4 es-moll / in E-flat minor [00h08'48"]
Ballades Op 10
05. I. № 1 d-moll / in D minor «Edward» [00h03'55"]
06. II. № 2 D-Dur / in D Major [00h05'13"]
07. III. № 3 h-moll / in B minor [00h03'47"]
08. IV. № 4 H-Dur / in B Major [00h06'02"]
Piano – Stephen Kovacevich-

EAC log

Exact Audio Copy V0.99 prebeta 5 from 4. May 2009
Отчёт EAC об извлечении, выполненном 7. сентября 2014, 0:12
Brahms / Piano Concerto № 1
Дисковод: MITSUMI CR-486ETE   Adapter: 0  ID: 0
Режим чтения                 : Достоверность
Использование точного потока : Да
Отключение кэша аудио        : Да
Использование указателей C2  : Нет
Коррекция смещения при чтении                     : 6
Способность читать области Lead-in и Lead-out     : Нет
Заполнение пропущенных сэмплов тишиной            : Да
Удаление блоков с тишиной в начале и конце        : Нет
При вычислениях CRC использовались нулевые сэмплы : Да
Интерфейс                                         : Установленный внешний ASPI-интерфейс
Выходной формат          : Monkey's Audio (без потерь)
Выбранный битрейт        : Normal Lossless Compression
Качество                 : Высокий
Добавление ID3-тэга      : Нет
Утилита сжатия           : C:\Program Files\Monkey's Audio\MAC.exe
TOC извлечённого CD
     Трек |   Старт  | Длительность | Начальный сектор | Конечный сектор
    ---------------------------------------------------------------------
       1  |  0:00.32 |   21:38.00   |          32      |      97381
       2  | 21:38.32 |   15:23.00   |       97382      |     166606
       3  | 37:01.32 |   11:08.00   |      166607      |     216706
       4  | 48:09.32 |    8:48.00   |      216707      |     256306
       5  | 56:57.32 |    3:55.00   |      256307      |     273931
       6  | 60:52.32 |    5:13.00   |      273932      |     297406
       7  | 66:05.32 |    3:47.00   |      297407      |     314431
       8  | 69:52.32 |    6:02.00   |      314432      |     341581
Характеристики диапазона извлечения и сообщения об ошибках
Выбранный диапазон
     Имя файла D:\Музыка lossless\Brahms Piano Concertos № 1 & 2 LSO\CD1 - Piano Concerto № 1\Brahms - Piano Concerto № 1.wav
     Пиковый уровень 94.3 %
     Качество диапазона 100.0 %
     CRC теста 1AAB62EF
     CRC копии 1AAB62EF
     Копирование... OK
Ошибок не произошло
AccurateRip: сводка
Трек  1  точность не определена (достоверность 10)  [5BE9E9BB], AccurateRip вернул [101F8BED]
Трек  2  точность не определена (достоверность 10)  [C188648A], AccurateRip вернул [217538DA]
Трек  3  точность не определена (достоверность 9)  [EBB9AC9E], AccurateRip вернул [C48FCB9A]
Трек  4  точность не определена (достоверность 9)  [304906BF], AccurateRip вернул [C5D6F4D7]
Трек  5  точность не определена (достоверность 9)  [79776547], AccurateRip вернул [1FCDE23E]
Трек  6  точность не определена (достоверность 9)  [5D9ABCAB], AccurateRip вернул [F393EE7C]
Трек  7  точность не определена (достоверность 9)  [7E62142F], AccurateRip вернул [6B427433]
Трек  8  точность не определена (достоверность 9)  [094BA318], AccurateRip вернул [30E01C5C]
Ни один трек не прошёл проверки на точность
В вашей базе может быть иной вариант штамповки диска
Конец отчёта

-

CUE

REM GENRE Classical
REM DATE 2010
REM DISCID 7111CA08
REM COMMENT "ExactAudioCopy v0.99pb5"
PERFORMER "Brahms"
TITLE "Piano Concerto № 1"
FILE "Brahms - Piano Concerto № 1.ape" WAVE
  TRACK 01 AUDIO
    TITLE "Piano Concerto № 1 Op 15 d-moll - I. Maestoso - Poco piu moderato"
    PERFORMER "Brahms"
    INDEX 00 00:00:00
    INDEX 01 00:00:32
  TRACK 02 AUDIO
    TITLE "Piano Concerto № 1 Op 15 d-moll - II. Adagio"
    PERFORMER "Brahms"
    INDEX 00 21:31:32
    INDEX 01 21:38:32
  TRACK 03 AUDIO
    TITLE "Piano Concerto № 1 Op 15 d-moll - III. Rondo: Allegro non troppo - Piu animato - Tempo I"
    PERFORMER "Brahms"
    INDEX 00 36:58:32
    INDEX 01 37:01:32
  TRACK 04 AUDIO
    TITLE "Scherzo Op 4 es-moll"
    PERFORMER "Brahms"
    INDEX 00 48:00:32
    INDEX 01 48:09:32
  TRACK 05 AUDIO
    TITLE "4 Ballades Op 10 - № 1 d-moll «Edward»"
    PERFORMER "Brahms"
    INDEX 00 56:51:32
    INDEX 01 56:57:32
  TRACK 06 AUDIO
    TITLE "4 Ballades Op 10 - № 2 D-Dur"
    PERFORMER "Brahms"
    INDEX 00 60:47:32
    INDEX 01 60:52:32
  TRACK 07 AUDIO
    TITLE "4 Ballades Op 10 - № 3 h-moll"
    PERFORMER "Brahms"
    INDEX 00 66:02:32
    INDEX 01 66:05:32
  TRACK 08 AUDIO
    TITLE "4 Ballades Op 10 - № 4 H-Dur"
    PERFORMER "Brahms"
    INDEX 00 69:45:32
    INDEX 01 69:52:32
-CD2 – 01h12'06"
Piano Concerto № 2 B-Dur / in B-flat Major, Op 83
01. I. Allegro non troppo [00h18'01"]
02. II. Allegro appassionato [00h08'38"]
03. III. Andante – Piu adagio [00h14'35"]
04. IV. Allegretto grazioso – Un poco piu presto [00h09'17"]
London Symphony Orchestra, cond. Sir Colin Davis, Piano – Stephen Kovacevich
Piano Pieces Op 76
05. I. № 1 Capriccio fis-moll / in F-sharp minor [00h02'34"]
06. II. № 2 Capriccio h-moll / in B minor [00h03'01"]
07. III. № 3 Intermezzo As-Dur / in A-flat Major [00h02'25"]
08. IV. № 4 Intermezzo B-Dur / in B-flat Major [00h02'18"]
09. V. № 5 Capriccio cis-moll / in C-sharp minor [00h02'57"]
10. VI. № 6 Intermezzo A-Dur / in A Major [00h02'54"]
11. VII. № 7 Intermezzo a-moll / in A minor [00h02'34"]
12. VIII. № 8 Capriccio C-Dur / in C Major [00h02'52"]
Piano – Stephen Kovacevich-

EAC log

Exact Audio Copy V0.99 prebeta 5 from 4. May 2009
Отчёт EAC об извлечении, выполненном 7. сентября 2014, 0:50
Brahms / Piano Concerto № 2
Дисковод: MITSUMI CR-486ETE   Adapter: 0  ID: 0
Режим чтения                 : Достоверность
Использование точного потока : Да
Отключение кэша аудио        : Да
Использование указателей C2  : Нет
Коррекция смещения при чтении                     : 6
Способность читать области Lead-in и Lead-out     : Нет
Заполнение пропущенных сэмплов тишиной            : Да
Удаление блоков с тишиной в начале и конце        : Нет
При вычислениях CRC использовались нулевые сэмплы : Да
Интерфейс                                         : Установленный внешний ASPI-интерфейс
Выходной формат          : Monkey's Audio (без потерь)
Выбранный битрейт        : Normal Lossless Compression
Качество                 : Высокий
Добавление ID3-тэга      : Нет
Утилита сжатия           : C:\Program Files\Monkey's Audio\MAC.exe
TOC извлечённого CD
     Трек |   Старт  | Длительность | Начальный сектор | Конечный сектор
    ---------------------------------------------------------------------
       1  |  0:00.33 |   18:00.50   |          33      |      81082
       2  | 18:01.08 |    8:37.52   |       81083      |     119909
       3  | 26:38.60 |   14:35.10   |      119910      |     185544
       4  | 41:13.70 |    9:16.38   |      185545      |     227282
       5  | 50:30.33 |    2:34.17   |      227283      |     238849
       6  | 53:04.50 |    3:01.30   |      238850      |     252454
       7  | 56:06.05 |    2:25.08   |      252455      |     263337
       8  | 58:31.13 |    2:18.30   |      263338      |     273717
       9  | 60:49.43 |    2:56.52   |      273718      |     286969
      10  | 63:46.20 |    2:53.43   |      286970      |     299987
      11  | 66:39.63 |    2:34.12   |      299988      |     311549
      12  | 69:14.00 |    2:52.33   |      311550      |     324482
Характеристики диапазона извлечения и сообщения об ошибках
Выбранный диапазон
     Имя файла D:\Музыка lossless\Brahms Piano Concertos № 1 & 2 LSO\CD2 - Piano Concerto № 2\Brahms - Piano Concerto № 2.wav
     Пиковый уровень 86.0 %
     Качество диапазона 99.9 %
     CRC теста 8BD5679D
     CRC копии 8BD5679D
     Копирование... OK
Ошибок не произошло
AccurateRip: сводка
Трек  1  точность не определена (достоверность 10)  [149318A8], AccurateRip вернул [4B4A9FD6]
Трек  2  точность не определена (достоверность 10)  [3E45E006], AccurateRip вернул [CE66749B]
Трек  3  точность не определена (достоверность 10)  [B13C20F9], AccurateRip вернул [D8E84B87]
Трек  4  точность не определена (достоверность 10)  [41EF8908], AccurateRip вернул [60306DA3]
Трек  5  точность не определена (достоверность 9)  [5995A3C1], AccurateRip вернул [CD94812C]
Трек  6  точность не определена (достоверность 9)  [05EC6805], AccurateRip вернул [B8CEA1E1]
Трек  7  точность не определена (достоверность 9)  [61962258], AccurateRip вернул [99F55592]
Трек  8  точность не определена (достоверность 9)  [E2FC0FE3], AccurateRip вернул [503DCD56]
Трек  9  точность не определена (достоверность 9)  [A914A5D0], AccurateRip вернул [81018152]
Трек 10  точность не определена (достоверность 8)  [244B5F95], AccurateRip вернул [9A01614A]
Трек 11  точность не определена (достоверность 8)  [8321D655], AccurateRip вернул [44F635EF]
Трек 12  точность не определена (достоверность 9)  [C10D9147], AccurateRip вернул [A408130A]
Ни один трек не прошёл проверки на точность
В вашей базе может быть иной вариант штамповки диска
Конец отчёта

-

CUE

REM GENRE Classical
REM DATE 2010
REM DISCID 9A10E60C
REM COMMENT "ExactAudioCopy v0.99pb5"
PERFORMER "Brahms"
TITLE "Piano Concerto № 2"
FILE "Brahms - Piano Concerto № 2.ape" WAVE
  TRACK 01 AUDIO
    TITLE "Piano Concerto № 2 Op 83 B-Dur - I. Allegro non troppo"
    PERFORMER "Brahms"
    INDEX 00 00:00:00
    INDEX 01 00:00:33
  TRACK 02 AUDIO
    TITLE "Piano Concerto № 2 Op 83 B-Dur - II. Allegro appassionato"
    PERFORMER "Brahms"
    INDEX 00 17:58:33
    INDEX 01 18:01:08
  TRACK 03 AUDIO
    TITLE "Piano Concerto № 2 Op 83 B-Dur - III. Andante - Piu adagio"
    PERFORMER "Brahms"
    INDEX 00 26:32:33
    INDEX 01 26:38:60
  TRACK 04 AUDIO
    TITLE "Piano Concerto № 2 Op 83 B-Dur - IV. Allegretto grazioso - Un poco piu presto"
    PERFORMER "Brahms"
    INDEX 00 41:12:33
    INDEX 01 41:13:70
  TRACK 05 AUDIO
    TITLE "Piano Pieces Op 76 - I. Capriccio fis-moll"
    PERFORMER "Brahms"
    INDEX 00 50:21:33
    INDEX 01 50:30:33
  TRACK 06 AUDIO
    TITLE "Piano Pieces Op 76 - II. Capriccio h-moll"
    PERFORMER "Brahms"
    INDEX 01 53:04:50
  TRACK 07 AUDIO
    TITLE "Piano Pieces Op 76 - III. Intermezzo As-Dur"
    PERFORMER "Brahms"
    INDEX 00 55:59:33
    INDEX 01 56:06:05
  TRACK 08 AUDIO
    TITLE "Piano Pieces Op 76 - IV. Intermezzo B-Dur"
    PERFORMER "Brahms"
    INDEX 01 58:31:13
  TRACK 09 AUDIO
    TITLE "Piano Pieces Op 76 - V. Capriccio cis-moll"
    PERFORMER "Brahms"
    INDEX 00 60:46:33
    INDEX 01 60:49:43
  TRACK 10 AUDIO
    TITLE "Piano Pieces Op 76 - VI. Intermezzo A-Dur"
    PERFORMER "Brahms"
    INDEX 00 63:37:33
    INDEX 01 63:46:20
  TRACK 11 AUDIO
    TITLE "Piano Pieces Op 76 - VII. Intermezzo a-moll"
    PERFORMER "Brahms"
    INDEX 00 66:37:33
    INDEX 01 66:39:63
  TRACK 12 AUDIO
    TITLE "Piano Pieces Op 76 - VIII. Capriccio C-Dur"
    PERFORMER "Brahms"
    INDEX 00 69:12:33
    INDEX 01 69:14:00

-
-
[teatrix.ru].t9919.torrent 
Торрент: Зарегистрирован [ 2015-10-25 20:37 ] · D8A9B57385E72101BFF2F6461ACE36B3849B7365

Скачать .torrent

Скачать

19 KB

Статус: проверено
Скачан: 0 раз
Размер: 468 MB
terms.php



Быстрый ответ

Имя:

      
Для отправки сообщений необходимо включить JavaScript
Показать сообщения:    

Текущее время: 11-Дек 07:16

Часовой пояс: UTC + 3


Вы можете начинать темы
Вы можете отвечать на сообщения
Вы не можете редактировать свои сообщения
Вы не можете удалять свои сообщения
Вы не можете голосовать в опросах
Вы не можете прикреплять файлы к сообщениям
Вы можете скачивать файлы