(Classical) Mozart / Beethoven — Piano Concerto № 24 KV 491 / Piano Concerto № 1 Op 15 (Ketevan Badridze, Elisso Bolkvadze; Jansug Kakhidze) — 1997, APE (image+.cue) lossless


Статистика раздачи [Обновить пиров]
Размер:  225 MB   |    Зарегистрирован:  1 год 1 месяц   |    Скачан:  0 раз

Полного источника не было: Никогда

 
   
 
 
 

[Цитировать]

Piano Concerto № 24 KV 491 / Piano Concerto № 1 Op 15- Жанр: Classical
Страны-производители диска: Швеция / Россия
Год издания диска: 1997
Издатели (лейблы): Unlimited Classics/HCD / Союз/Классика без границ
Номер по каталогу: SZCD0683 - 96
CATALOG: 4601250306834
Композиторы: Wolfgang Amadeus Mozart / Ludwig van Beethoven
Аудио кодек: ape
Тип рипа: image+.cue
Битрейт аудио: lossless
Продолжительность: 01h07'12"
Источник: собственный рип
Наличие сканов в содержимом раздачи: нет-Треклист:
Wolfgang Amadeus Mozart. Piano Concerto № 24 c-moll / in C minor KV 491
01. I. Allegro [00h13'50"]
02. II. Larghetto [00h07'29"]
03. III. Allegretto [00h09'03"]
Tbilisi Symphony Orchestra, cond. Jansug Kakhidze, Piano – Ketevan Badridze
Ludwig van Beethoven. Piano Concerto № 1 C-Dur / in C Major, Op 15
04. I. Allegro con brio [00h17'37"]
05. II. Largo [00h10'41"]
06. III. Rondo. Allegro scherzando [00h08'31"]
Tbilisi Symphony Orchestra, cond. Jansug Kakhidze, Piano – Elisso Bolkvadze
-

EAC log

Exact Audio Copy V0.99 prebeta 5 from 4. May 2009
Отчёт EAC об извлечении, выполненном 6. сентября 2014, 11:28
Mozart Beethoven / Piano Concertos
Дисковод: PIONEER DVD-RW  DVR-111D   Adapter: 1  ID: 0
Режим чтения                 : Достоверность
Использование точного потока : Да
Отключение кэша аудио        : Да
Использование указателей C2  : Нет
Коррекция смещения при чтении                     : 48
Способность читать области Lead-in и Lead-out     : Нет
Заполнение пропущенных сэмплов тишиной            : Да
Удаление блоков с тишиной в начале и конце        : Нет
При вычислениях CRC использовались нулевые сэмплы : Да
Интерфейс                                         : Установленный внешний ASPI-интерфейс
Выходной формат          : Monkey's Audio (без потерь)
Выбранный битрейт        : Normal Lossless Compression
Качество                 : Высокий
Добавление ID3-тэга      : Нет
Утилита сжатия           : C:\Program Files\Monkey's Audio\MAC.exe
TOC извлечённого CD
     Трек |   Старт  | Длительность | Начальный сектор | Конечный сектор
    ---------------------------------------------------------------------
       1  |  0:00.00 |   13:49.55   |           0      |      62229
       2  | 13:49.55 |    7:29.15   |       62230      |      95919
       3  | 21:18.70 |    9:03.15   |       95920      |     136659
       4  | 30:22.10 |   17:37.00   |      136660      |     215934
       5  | 47:59.10 |   10:41.35   |      215935      |     264044
       6  | 58:40.45 |    8:31.30   |      264045      |     302399
Характеристики диапазона извлечения и сообщения об ошибках
Выбранный диапазон
     Имя файла D:\Музыка lossless\Mozart Beethoven Piano Concertos TSO\Mozart Beethoven - Piano Concertos.wav
     Пиковый уровень 95.8 %
     Качество диапазона 100.0 %
     CRC теста 537DCDF7
     CRC копии 537DCDF7
     Копирование... OK
Ошибок не произошло
AccurateRip: сводка
Трек  1  нет в базе данных
Трек  2  нет в базе данных
Трек  3  нет в базе данных
Трек  4  нет в базе данных
Трек  5  нет в базе данных
Трек  6  нет в базе данных
Ни одного трека нет в базе AccurateRip
Конец отчёта

-

CUE

REM GENRE Classical
REM DATE 1997
REM DISCID 470FC006
REM COMMENT "ExactAudioCopy v0.99pb5"
PERFORMER "Mozart Beethoven"
TITLE "Piano Concertos"
FILE "Mozart Beethoven - Piano Concertos.ape" WAVE
  TRACK 01 AUDIO
    TITLE "Mozart Piano Concerto № 24 c-moll KV 491 - I. Allegro"
    PERFORMER "Mozart Beethoven"
    FLAGS DCP
    INDEX 01 00:00:00
  TRACK 02 AUDIO
    TITLE "Mozart Piano Concerto № 24 c-moll KV 491 - II. Larghetto"
    PERFORMER "Mozart Beethoven"
    FLAGS DCP
    INDEX 00 13:47:00
    INDEX 01 13:49:55
  TRACK 03 AUDIO
    TITLE "Mozart Piano Concerto № 24 c-moll KV 491 - III. Allegretto"
    PERFORMER "Mozart Beethoven"
    FLAGS DCP
    INDEX 00 21:16:35
    INDEX 01 21:18:70
  TRACK 04 AUDIO
    TITLE "Beethoven Piano Concerto № 1 Op 15 C-Dur - I. Allegro con brio"
    PERFORMER "Mozart Beethoven"
    FLAGS DCP
    INDEX 00 30:17:40
    INDEX 01 30:22:10
  TRACK 05 AUDIO
    TITLE "Beethoven Piano Concerto № 1 Op 15 C-Dur - II. Largo"
    PERFORMER "Mozart Beethoven"
    FLAGS DCP
    INDEX 00 47:56:35
    INDEX 01 47:59:10
  TRACK 06 AUDIO
    TITLE "Beethoven Piano Concerto № 1 Op 15 C-Dur - III. Rondo. Allegro scherzando"
    PERFORMER "Mozart Beethoven"
    FLAGS DCP
    INDEX 00 58:37:35
    INDEX 01 58:40:45
-
[teatrix.ru].t9920.torrent 
Торрент: Зарегистрирован [ 2015-10-25 20:37 ] · 21D19082A43D1D0DDC1FCF95176836E6FAB357CA

Скачать .torrent

Скачать

18 KB

Статус: проверено
Скачан: 0 раз
Размер: 225 MB
terms.php



Быстрый ответ

Имя:

      
Для отправки сообщений необходимо включить JavaScript
Показать сообщения:    

Текущее время: 11-Дек 07:10

Часовой пояс: UTC + 3


Вы можете начинать темы
Вы можете отвечать на сообщения
Вы не можете редактировать свои сообщения
Вы не можете удалять свои сообщения
Вы не можете голосовать в опросах
Вы не можете прикреплять файлы к сообщениям
Вы можете скачивать файлы