(Classical) Wolfgang Amadeus Mozart - Piano Concertos Nos. 22 & 25 - David Fray, Philharmonia Orchestra, Jaap van Zweden - 2010, FLAC (image+.cue) lossless


Статистика раздачи [Обновить пиров]
Размер:  256 MB   |    Зарегистрирован:  1 год 1 месяц   |    Скачан:  0 раз

Полного источника не было: Никогда

 
   
 
 
 

[Цитировать]

Wolfgang Amadeus Mozart - Piano Concertos Nos. 22 & 25 - David Fray, Philharmonia Orchestra, Jaap van Zweden
Жанр: Classical
Страна-производитель диска: France
Год издания диска: 2010
Издатель (лейбл): Erato
Дата записи: 2010
Аудиокодек: FLAC
Тип рипа: image+.cue
Битрейт аудио: lossless
Продолжительность: 66:04
Источник: собственный рип
Наличие сканов в содержимом раздачи: да
Треклист:
Wolfgang Amadeus Mozart (1756-1791)
[1]-[3] Piano Concerto No.22 in E flat major, K.482
[4]-[6] Piano Concerto No.25 in C major, K.503
Исполнители:
David Fray piano
Philharmonia Orchestra
Jaap van Zweden

Лог создания рипа

Exact Audio Copy V1.0 beta 3 from 29. August 2011
EAC extraction logfile from 16. July 2014, 14:26
David Fray, Philharmonia Orchestra, Jaap van Zweden / Mozart - Piano Concertos Nos. 22 & 25
Used drive : HL-DT-STDVDRRW GWA-4164B Adapter: 5 ID: 0
Read mode : SecureUtilize accurate stream : YesDefeat audio cache : YesMake use of C2 pointers : No
Read offset correction : 102Overread into Lead-In and Lead-Out : NoFill up missing offset samples with silence : YesDelete leading and trailing silent blocks : NoNull samples used in CRC calculations : YesUsed interface : Native Win32 interface for Win NT & 2000
Used output format : User Defined EncoderSelected bitrate : 896 kBit/sQuality : HighAdd ID3 tag : NoCommand line compressor : C:\Program Files\Exact Audio Copy\FLAC\FLAC.EXEAdditional command line options : -V -8 %source%
TOC of the extracted CD
Track | Start | Length | Start sector | End sector --------------------------------------------------------- 1 | 0:00.00 | 13:08.49 | 0 | 59148 2 | 13:08.49 | 9:35.65 | 59149 | 102338 3 | 22:44.39 | 11:55.43 | 102339 | 156006 4 | 34:40.07 | 14:52.52 | 156007 | 222958 5 | 49:32.59 | 7:29.17 | 222959 | 256650 6 | 57:02.01 | 9:00.46 | 256651 | 297196
Range status and errors
Selected range
Filename D:\temp\Music\Mozart - Piano Concertos Nos. 22 & 25 - Fray\Mozart - Piano Concertos Nos. 22 & 25.wav
Peak level 99.4 % Extraction speed 3.4 X Range quality 100.0 % Test CRC 9925508B Copy CRC 9925508B Copy OK
No errors occurred
AccurateRip summary
Track 1 accurately ripped (confidence 12) [2F20B173] (AR v2)Track 2 accurately ripped (confidence 13) [C044C81E] (AR v2)Track 3 accurately ripped (confidence 13) [26B7F0D7] (AR v2)Track 4 accurately ripped (confidence 13) [A457E73A] (AR v2)Track 5 accurately ripped (confidence 13) [8622F27F] (AR v2)Track 6 accurately ripped (confidence 13) [6F4F4036] (AR v2)
All tracks accurately ripped
End of status report
==== Log checksum 0DE282160CE687879FD0E408BC53742332B92DF1E229F8B3F150031E5DD7E774 ====
[teatrix.ru].t9921.torrent 
Торрент: Зарегистрирован [ 2015-10-25 20:37 ] · 6AFD182D11872D9C2F90544FAE6799DD982460ED

Скачать .torrent

Скачать

42 KB

Статус: проверено
Скачан: 0 раз
Размер: 256 MB
terms.php



Быстрый ответ

Имя:

      
Для отправки сообщений необходимо включить JavaScript
Показать сообщения:    

Текущее время: 03-Дек 18:36

Часовой пояс: UTC + 3


Вы можете начинать темы
Вы можете отвечать на сообщения
Вы не можете редактировать свои сообщения
Вы не можете удалять свои сообщения
Вы не можете голосовать в опросах
Вы не можете прикреплять файлы к сообщениям
Вы можете скачивать файлы