(Classical) Jean Sibelius, Thomas Ades - Violin Concertos - Augustin Hadelich, Royal Liverpool Philharmonic Orchestra, Hannu Lintu - 2014, FLAC (image+.cue) lossless


Статистика раздачи [Обновить пиров]
Размер:  299 MB   |    Зарегистрирован:  1 год 1 месяц   |    Скачан:  1 раз

Полного источника не было: 9 дней

 
   
 
 
 

[Цитировать]

Jean Sibelius, Thomas Adès - Violin Concertos - Augustin Hadelich, Royal Liverpool Philharmonic Orchestra, Hannu Lintu
Жанр: Classical
Год издания диска: 2014
Издатель (лейбл): Avie
Номер по каталогу: AV2276
Дата записи: 2013
Аудиокодек: FLAC
Тип рипа: image+.cue
Битрейт аудио: lossless
Продолжительность: 60:50
Источник: собственный рип
Наличие сканов в содержимом раздачи: да
Треклист:
Thomas Adès (b.1971)
[1]-[3] Violin Concerto 'Concentric Paths'
Jean Sibelius (1865-1957)
[4]-[6] Violin Concerto in D minor, Op.47
Three Humoresques
[7] Humoresque in D major, Op.87 No.2
[8] Humoresque in G minor, Op.89 No.2
[9] Humoresque in E flat major, Op.89 No.3
Исполнители:
Augustin Hadelich violin
Royal Liverpool Philharmonic Orchestra
Hannu Lintu
conductor

Лог создания рипа

Exact Audio Copy V1.0 beta 3 from 29. August 2011
EAC extraction logfile from 8. July 2014, 13:19
Augustin Hadelich, Royal Liverpool Philharmonic Orchestra, Hannu Lintu / Sibelius, Ades - Violin Concertos
Used drive : HL-DT-STDVDRRW GWA-4164B Adapter: 5 ID: 0
Read mode : SecureUtilize accurate stream : YesDefeat audio cache : YesMake use of C2 pointers : No
Read offset correction : 102Overread into Lead-In and Lead-Out : NoFill up missing offset samples with silence : YesDelete leading and trailing silent blocks : NoNull samples used in CRC calculations : YesUsed interface : Native Win32 interface for Win NT & 2000
Used output format : User Defined EncoderSelected bitrate : 896 kBit/sQuality : HighAdd ID3 tag : NoCommand line compressor : C:\Program Files\Exact Audio Copy\FLAC\FLAC.EXEAdditional command line options : -V -8 %source%
TOC of the extracted CD
Track | Start | Length | Start sector | End sector --------------------------------------------------------- 1 | 0:00.00 | 3:58.29 | 0 | 17878 2 | 3:58.29 | 10:24.50 | 17879 | 64728 3 | 14:23.04 | 4:55.33 | 64729 | 86886 4 | 19:18.37 | 15:36.02 | 86887 | 157088 5 | 34:54.39 | 8:49.17 | 157089 | 196780 6 | 43:43.56 | 7:39.25 | 196781 | 231230 7 | 51:23.06 | 2:30.26 | 231231 | 242506 8 | 53:53.32 | 3:42.37 | 242507 | 259193 9 | 57:35.69 | 3:13.02 | 259194 | 273670
Range status and errors
Selected range
Filename D:\temp\Music\Sibelius, Ades - Violin Concertos\Sibelius, Ades - Violin Concertos.wav
Peak level 99.2 % Extraction speed 3.1 X Range quality 100.0 % Test CRC FAEACE56 Copy CRC FAEACE56 Copy OK
No errors occurred
AccurateRip summary
Track 1 not present in databaseTrack 2 not present in databaseTrack 3 not present in databaseTrack 4 not present in databaseTrack 5 not present in databaseTrack 6 not present in databaseTrack 7 not present in databaseTrack 8 not present in databaseTrack 9 not present in database
None of the tracks are present in the AccurateRip database
End of status report
==== Log checksum BD2116A30379B0A90D8C946F95DC079E64AD449DBFA52267862571A08BD77E0A ====
[teatrix.ru].t9922.torrent 
Торрент: Зарегистрирован [ 2015-10-25 20:37 ] · CA2FC5E91F8DF362AEA0B92E994FDC3572A74B94

Скачать .torrent

Скачать

26 KB

Статус: проверено
Скачан: 1 раз
Размер: 299 MB
terms.php



Быстрый ответ

Имя:

      
Для отправки сообщений необходимо включить JavaScript
Показать сообщения:    

Текущее время: 06-Дек 15:12

Часовой пояс: UTC + 3


Вы можете начинать темы
Вы можете отвечать на сообщения
Вы не можете редактировать свои сообщения
Вы не можете удалять свои сообщения
Вы не можете голосовать в опросах
Вы не можете прикреплять файлы к сообщениям
Вы можете скачивать файлы