(Classical) Конюс – Скрипичный концерт; Давыдов – Виолончельный № 2; Глазунов – Фортепианный № 2 / Conus, Davidoff, Glazunov – Concertos (Csury, Herskowitz; Зюмбровский, Туровский / Ziumbrovsky, Turovsky) - 1998, FLAC (image+.cue) lossless


Статистика раздачи [Обновить пиров]
Размер:  309 MB   |    Зарегистрирован:  1 год 1 месяц   |    Скачан:  0 раз

Полного источника не было: 6 месяцев 21 день

 
   
 
 
 

[Цитировать]

Конюс – Скрипичный концерт; Давыдов – Виолончельный № 2; Глазунов – Фортепианный № 2 / Conus (Konyus), Davidoff (Davïdov), Glazunov – Concertos (Csüry, Herskowitz; Зюмбровский, Туровский / Ziumbrovsky, Turovsky)
Жанр: Classical
Страна-производитель диска: ЕС
Год издания диска: 1998
Издатель (лейбл): Chandos
Номер по каталогу: CHAN 9622
Дата записи: 25 — 26 августа 1997 г., Монреаль.
Аудиокодек: FLAC
Тип рипа: image+.cue
Битрейт аудио: lossless
Продолжительность: 01:09:32
Источник: odeonmusic
Наличие сканов в содержимом раздачи: да
Треклист:
Юлий Конюс (1869 — 1942).
Скрипичный концерт e-moll (ок. 1896).
01. Allegro molto. — Andante espressivo. — Poco più moderato quale tempo I. — Andante. — Allegro. Tempo I. — [22:12].
(02.) — Adagio. —
(03.) — Recitativo. — Andante espressivo. — Poco più moderato quale tempo I. — Cadenza. — Andante espressivo. — Allegro subito.
Карл Давыдов (1838 — 1889).
Виолончельный концерт № 2 a-moll, op. 14 (1863).
02. I. Allegro [13:06].
03. II. Andante [07:05].
04. III. Allegro con brio [06:10].
Александр Глазунов (1865 — 1936).
Фортепианный концерт № 2 H-dur (e-moll), op. 100 (1916 — 1917).
05. Andante sostenuto. — Allegro. — Più moderato. — Cadenza. — [20:40].
(08.) — Andante. —
(09.) — Allegro. — Allegretto scherzando. — Poco meno mosso. — Poco più mosso. —
(10.) — Allegro moderato. — Più moderato. — Allegretto. — Allegro moderato. — Cantabile. — Poco più mosso. Allegretto. — Moderato assai. — Più mosso. Alla breve.
Исполнители:
L. Edvin Csüry (скрипка),
Александр Зюмбровский (виолончель),
Matthew Herskowitz (фортепиано).
I Musici de Montréal.
Дирижер Юлий Туровский.

Лог создания рипа

Exact Audio Copy V1.0 beta 3 from 29. August 2011
EAC extraction logfile from 9. April 2014, 17:00
Yuli Turovsky / Konyus, Davidov, Glazunov - Concertos - Yuli Turovsky
Used drive : TSSTcorpCDDVDW SH-222BB Adapter: 2 ID: 1
Read mode : SecureUtilize accurate stream : YesDefeat audio cache : YesMake use of C2 pointers : No
Read offset correction : 6Overread into Lead-In and Lead-Out : NoFill up missing offset samples with silence : YesDelete leading and trailing silent blocks : NoNull samples used in CRC calculations : YesUsed interface : Native Win32 interface for Win NT & 2000
Used output format : User Defined EncoderSelected bitrate : 896 kBit/sQuality : HighAdd ID3 tag : NoCommand line compressor : C:\Program Files\Exact Audio Copy\FLAC\FLAC.EXEAdditional command line options : -8 -V -T "TITLE=%title%" -T "ARTIST=%artist%" -T "ALBUMARTIST=%albumartist%" -T "ALBUM=%albumtitle%" -T "DATE=%year%" -T "TRACKNUMBER=%tracknr%" -T "TRACKTOTAL=%numtracks%" -T "GENRE=%genre%" -T "COMMENT=%comment%" -T "PERFORMER=%albuminterpret%" -T "COMPOSER=%composer%" %source% -o %dest%
TOC of the extracted CD
Track | Start | Length | Start sector | End sector --------------------------------------------------------- 1 | 0:00.00 | 22:19.00 | 0 | 100424 2 | 22:19.00 | 13:11.00 | 100425 | 159749 3 | 35:30.00 | 7:05.10 | 159750 | 191634 4 | 42:35.10 | 6:16.65 | 191635 | 219899 5 | 48:52.00 | 20:40.30 | 219900 | 312929
Range status and errors
Selected range
Filename E:\3000\[3725] Konyus, Davidov, Glazunov – Concertos – Yuli Turovsky\Konyus, Davidov, Glazunov - Concertos - Yuli Turovsky.wav
Peak level 99.9 % Extraction speed 3.2 X Range quality 100.0 % Test CRC 4DB151B4 Copy CRC 4DB151B4 Copy OK
No errors occurred
AccurateRip summary
Track 1 accurately ripped (confidence 3) [F31129CA] (AR v2)Track 2 accurately ripped (confidence 3) [6F8111DA] (AR v2)Track 3 accurately ripped (confidence 3) [5398346B] (AR v2)Track 4 accurately ripped (confidence 3) [52CC4918] (AR v2)Track 5 accurately ripped (confidence 3) [E26B3438] (AR v2)
All tracks accurately ripped
End of status report
==== Log checksum 4F3D733395092BFB3BCAD65C17841F9425E7A3CC00BBD889473776F3A9A70839 ====

Содержание индексной карты (.CUE)

REM GENRE ClassicalREM DATE 1997REM DISCID 38104C05REM COMMENT "ExactAudioCopy v1.0b3"PERFORMER "Yuli Turovsky"TITLE "Konyus, Davidov, Glazunov – Concertos – Yuli Turovsky"FILE "Konyus, Davidov, Glazunov – Concertos – Yuli Turovsky.flac" WAVE TRACK 01 AUDIO TITLE "Conus - Violin Concerto in E minor" PERFORMER "Yuli Turovsky" INDEX 01 00:00:00 TRACK 02 AUDIO TITLE "Davidoff - Cello Concerto No. 2 in A minor, Op. 14 - I. Allegro" PERFORMER "Yuli Turovsky" INDEX 00 22:12:30 INDEX 01 22:19:00 TRACK 03 AUDIO TITLE "Davidoff - Cello Concerto No. 2 in A minor, Op. 14 - II. Andante" PERFORMER "Yuli Turovsky" INDEX 00 35:25:30 INDEX 01 35:30:00 TRACK 04 AUDIO TITLE "Davidoff - Cello Concerto No. 2 in A minor, Op. 14 - III. Allegro con brio" PERFORMER "Yuli Turovsky" INDEX 01 42:35:10 TRACK 05 AUDIO TITLE "Glazunov - Piano Concerto No. 2 in B Major, Op. 100" PERFORMER "Yuli Turovsky" INDEX 00 48:45:30 INDEX 01 48:52:00

Вариант индексной карты (.CUE) с разделением концертов Конюса и Глазунова на отдельные треки

REM GENRE ClassicalREM DATE 1997REM DISCID 38104C05REM COMMENT "ExactAudioCopy v1.0b3"PERFORMER "Yuli Turovsky"TITLE "Konyus, Davidov, Glazunov – Concertos – Yuli Turovsky"FILE "Konyus, Davidov, Glazunov – Concertos – Yuli Turovsky.flac" WAVE TRACK 01 AUDIO TITLE "Conus - Violin Concerto in E minor - Allegro molto - Andante espressivo - Tempo I -" PERFORMER "Yuli Turovsky" INDEX 01 00:00:00 TRACK 02 AUDIO TITLE "Conus - Violin Concerto in E minor - Adagio -" PERFORMER "Yuli Turovsky" INDEX 01 09:12:13 TRACK 03 AUDIO TITLE "Conus - Violin Concerto in E minor - Recitativo - Andante espressivo - Tempo I" PERFORMER "Yuli Turovsky" INDEX 01 13:39:32 TRACK 04 AUDIO TITLE "Davidoff - Cello Concerto No. 2 in A minor, Op. 14 - I. Allegro" PERFORMER "Yuli Turovsky" INDEX 00 22:12:30 INDEX 01 22:19:00 TRACK 05 AUDIO TITLE "Davidoff - Cello Concerto No. 2 in A minor, Op. 14 - II. Andante" PERFORMER "Yuli Turovsky" INDEX 00 35:25:30 INDEX 01 35:31:05 TRACK 06 AUDIO TITLE "Davidoff - Cello Concerto No. 2 in A minor, Op. 14 - III. Allegro con brio" PERFORMER "Yuli Turovsky" INDEX 01 42:35:10 TRACK 07 AUDIO TITLE "Glazunov - Piano Concerto No. 2 in B Major, Op. 100 - Andante sostenuto - Allegro -" PERFORMER "Yuli Turovsky" INDEX 00 48:45:30 INDEX 01 48:52:00 TRACK 08 AUDIO TITLE "Glazunov - Piano Concerto No. 2 in B Major, Op. 100 - Andante -" PERFORMER "Yuli Turovsky" INDEX 01 55:43:33 TRACK 09 AUDIO TITLE "Glazunov - Piano Concerto No. 2 in B Major, Op. 100 - Allegro - Allegretto scherzando - Poco meno mosso -" PERFORMER "Yuli Turovsky" INDEX 01 59:09:10 TRACK 10 AUDIO TITLE "Glazunov - Piano Concerto No. 2 in B Major, Op. 100 - Allegro moderato" PERFORMER "Yuli Turovsky" INDEX 01 65:00:29
[teatrix.ru].t9923.torrent 
Торрент: Зарегистрирован [ 2015-10-25 20:37 ] · E342BFE657E3536238D4AE5D41BD8017E9D70388

Скачать .torrent

Скачать

13 KB

Статус: проверено
Скачан: 0 раз
Размер: 309 MB
terms.php



Быстрый ответ

Имя:

      
Для отправки сообщений необходимо включить JavaScript
Показать сообщения:    

Текущее время: 08-Дек 17:25

Часовой пояс: UTC + 3


Вы можете начинать темы
Вы можете отвечать на сообщения
Вы не можете редактировать свои сообщения
Вы не можете удалять свои сообщения
Вы не можете голосовать в опросах
Вы не можете прикреплять файлы к сообщениям
Вы можете скачивать файлы