(Classical) Frederic Chopin — Piano Concertos № 1, 2 (Маркевич, Kubelik, Magaloff, Haskil) — 2009, APE (image+.cue) lossless


Статистика раздачи [Обновить пиров]
Размер:  245 MB   |    Зарегистрирован:  1 год 1 месяц   |    Скачан:  0 раз

Полного источника не было: Никогда

 
   
 
 
 

[Цитировать]

Piano Concertos № 1, 2- Жанр: Classical
Страна-производитель диска: Россия
Год издания диска: 2009
Издатель (лейбл): dreaMusic, Munhwa medicom
Номер по каталогу: ПР3 CD25281
CATALOG: 4640001325281
Композитор: Frederic Chopin
Аудио кодек: ape
Тип рипа: image+.cue
Битрейт аудио: lossless
Продолжительность: 01h11'33"
Источник: собственный рип
Наличие сканов в содержимом раздачи: нет-Треклист:
Piano Concerto № 1 e-moll / in E minor, Op 11
01. I. Allegro maestoso [00h19'56"]
02. II. Romanze. Larghetto [00h10'24"]
03. III. Rondo. Vivace [00h09'34"]
Orchestre Lamoureux, cond. Igor Markevitch, Piano – Nikita Magaloff / Оркестр Ламурё, дир. Игорь Маркевич, фортепиано – Никита Магалов
Piano Concerto № 2 f-moll / in F minor, Op 21
04. I. Maestoso [00h14'06"]
05. II. Larghetto [00h09'22"]
06. III. Allegro vivace [00h08'11"]
Orchestre de la Société des concerts du Conservatoire / Orchestre de Paris, cond. Rafael Kubelík, Piano – Clara Haskil / Оркестр концертного общества парижской консерватории / Оркестр Парижа, дир. Рафаэль Кубелик, фортепиано – Клара Хаскил
-

EAC log

Exact Audio Copy V0.99 prebeta 5 from 4. May 2009
Отчёт EAC об извлечении, выполненном 19. августа 2014, 18:42
Chopin / Piano Concertos № 1, 2
Дисковод: MITSUMI CR-486ETE   Adapter: 0  ID: 0
Режим чтения                 : Достоверность
Использование точного потока : Да
Отключение кэша аудио        : Да
Использование указателей C2  : Нет
Коррекция смещения при чтении                     : 6
Способность читать области Lead-in и Lead-out     : Нет
Заполнение пропущенных сэмплов тишиной            : Да
Удаление блоков с тишиной в начале и конце        : Нет
При вычислениях CRC использовались нулевые сэмплы : Да
Интерфейс                                         : Установленный внешний ASPI-интерфейс
Выходной формат          : Monkey's Audio (без потерь)
Выбранный битрейт        : Normal Lossless Compression
Качество                 : Высокий
Добавление ID3-тэга      : Нет
Утилита сжатия           : C:\Program Files\Monkey's Audio\MAC.exe
TOC извлечённого CD
     Трек |   Старт  | Длительность | Начальный сектор | Конечный сектор
    ---------------------------------------------------------------------
       1  |  0:00.00 |   19:55.68   |           0      |      89692
       2  | 19:55.68 |   10:24.20   |       89693      |     136512
       3  | 30:20.13 |    9:33.47   |      136513      |     179534
       4  | 39:53.60 |   14:06.10   |      179535      |     242994
       5  | 53:59.70 |    9:21.65   |      242995      |     285134
       6  | 63:21.60 |    8:11.07   |      285135      |     321966
Характеристики диапазона извлечения и сообщения об ошибках
Выбранный диапазон
     Имя файла D:\Музыка lossless\Chopin Piano Concertos № 1, 2\Chopin - Piano Concertos № 1, 2.wav
     Пиковый уровень 78.6 %
     Качество диапазона 100.0 %
     CRC теста 56A8B7D4
     CRC копии 56A8B7D4
     Копирование... OK
Ошибок не произошло
AccurateRip: сводка
Трек  1  нет в базе данных
Трек  2  нет в базе данных
Трек  3  нет в базе данных
Трек  4  нет в базе данных
Трек  5  нет в базе данных
Трек  6  нет в базе данных
Ни одного трека нет в базе AccurateRip
Конец отчёта

-

CUE

REM GENRE Classical
REM DATE 2009
REM DISCID 4C10C406
REM COMMENT "ExactAudioCopy v0.99pb5"
PERFORMER "Chopin"
TITLE "Piano Concertos № 1, 2"
FILE "Chopin - Piano Concertos № 1, 2.ape" WAVE
  TRACK 01 AUDIO
    TITLE "Piano Concerto № 1 Op 11 e-moll - Allegro Maestoso"
    PERFORMER "Chopin"
    INDEX 01 00:00:00
  TRACK 02 AUDIO
    TITLE "Piano Concerto № 1 Op 11 e-moll - Romanza: Larghetto"
    PERFORMER "Chopin"
    INDEX 01 19:55:68
  TRACK 03 AUDIO
    TITLE "Piano Concerto № 1 Op 11 e-moll - Rondo: Vivace"
    PERFORMER "Chopin"
    INDEX 01 30:20:13
  TRACK 04 AUDIO
    TITLE "Piano Concerto № 2 Op 21 f-moll - Maestoso"
    PERFORMER "Chopin"
    INDEX 01 39:53:60
  TRACK 05 AUDIO
    TITLE "Piano Concerto № 2 Op 21 f-moll - Larghetto"
    PERFORMER "Chopin"
    INDEX 01 53:59:70
  TRACK 06 AUDIO
    TITLE "Piano Concerto № 2 Op 21 f-moll - Allegro Vivace"
    PERFORMER "Chopin"
    INDEX 01 63:21:60
-
[teatrix.ru].t9924.torrent 
Торрент: Зарегистрирован [ 2015-10-25 20:37 ] · B2B87BDFF9FEA4E6232C0B5E06C5E8DB0DC31DC9

Скачать .torrent

Скачать

20 KB

Статус: проверено
Скачан: 0 раз
Размер: 245 MB
terms.php



Быстрый ответ

Имя:

      
Для отправки сообщений необходимо включить JavaScript
Показать сообщения:    

Текущее время: 08-Дек 10:57

Часовой пояс: UTC + 3


Вы можете начинать темы
Вы можете отвечать на сообщения
Вы не можете редактировать свои сообщения
Вы не можете удалять свои сообщения
Вы не можете голосовать в опросах
Вы не можете прикреплять файлы к сообщениям
Вы можете скачивать файлы