(Classical) Венявский – Концерт № 1; Конюс – Концерт; Вьетан – Фантазия / Wieniawski – Violin Concerto No. 1; Conus – Concerto; Vieuxtemps – Fantasia appassionata (Soo-Hyun Park, Nicholas Milton) - 2013, FLAC (image+.cue) lossless


Статистика раздачи [Обновить пиров]
Размер:  290 MB   |    Зарегистрирован:  1 год 1 месяц   |    Скачан:  0 раз

Полного источника не было: Никогда

 
   
 
 
 

[Цитировать]

Венявский – Концерт № 1; Конюс – Концерт; Вьетан – Фантазия / Wieniawski – Violin Concerto No. 1; Conus – Concerto; Vieuxtemps – Fantasia appassionata (Soo-Hyun Park, Nicholas Milton)
Жанр: Classical
Страна-производитель диска: ЕС
Год издания диска: 2013
Издатель (лейбл): onyx
Номер по каталогу: ONYX 4109
Дата записи: 3 — 6 сентября 2012 г., Людвигсгафен.
Аудиокодек: FLAC
Тип рипа: image+.cue
Битрейт аудио: lossless
Продолжительность: 01:09:25
Источник: odeonmusic
Наличие сканов в содержимом раздачи: да
Треклист:
Генрик (Генрих Иосифович) Венявский (1835 — 1880).
Скрипичный концерт № 1 fis-moll, op. 14 (первое исп. 1853).
01. I. Allegro moderato [15:42].
02. II. Preghiera [Молитва]. Larghetto [04:28].
03. III. Rondo. Allegro gioioso [07:34].
Юлий Эдуардович Конюс (1869 — 1942).
Скрипичный концерт e-moll (ок. 1896).
04. Allegro molto. — Andante espressivo. — Poco più moderato quale tempo I. — Andante. — Allegro. Tempo I. — [09:25].
05. — Adagio. — [03:55].
06. — Recitativo. — Andante espressivo. — Poco più moderato quale tempo I. — Cadenza. — Andante espressivo. — Allegro subito [08:53].
Анри Франсуа Жозеф Вьетан (1820 — 1881).
Fantasia appassionata, op. 35 (ок. 1860) [19:26].
07. Allegro moderato. — Andante. — Moderato. — Variation. —
(08.) — Largo. — Poco più mosso. — Tempo I [Largo]. —
(09.) — Finale. Saltarella. Allegro vivace. — Più mosso.
Исполнители:
Soo-Hyun Park (скрипка).
Deutsche Staatsphilharmonie Rheinland-Pfalz.
Дирижер Nicholas Milton.

Лог создания рипа

Exact Audio Copy V1.0 beta 3 from 29. August 2011
EAC extraction logfile from 20. August 2013, 15:47
Soo-Hyun Park / Wieniawski, Conus, Vieuxtemps - Works for Violin and Orchestra - Soo-Hyun Park
Used drive : TSSTcorpCDDVDW SH-222BB Adapter: 2 ID: 1
Read mode : SecureUtilize accurate stream : YesDefeat audio cache : YesMake use of C2 pointers : No
Read offset correction : 6Overread into Lead-In and Lead-Out : NoFill up missing offset samples with silence : YesDelete leading and trailing silent blocks : NoNull samples used in CRC calculations : YesUsed interface : Native Win32 interface for Win NT & 2000
Used output format : User Defined EncoderSelected bitrate : 1024 kBit/sQuality : HighAdd ID3 tag : NoCommand line compressor : C:\Program Files\Exact Audio Copy\Flac\flac.exeAdditional command line options : -8 -V -T "TITLE=%title%" -T "ARTIST=%artist%" -T "ALBUMARTIST=%albumartist%" -T "ALBUM=%albumtitle%" -T "DATE=%year%" -T "TRACKNUMBER=%tracknr%" -T "TRACKTOTAL=%numtracks%" -T "GENRE=%genre%" -T "COMMENT=%comment%" -T "PERFORMER=%albuminterpret%" -T "COMPOSER=%composer%" %source% -o %dest%
TOC of the extracted CD
Track | Start | Length | Start sector | End sector --------------------------------------------------------- 1 | 0:00.00 | 15:42.03 | 0 | 70652 2 | 15:42.03 | 4:28.09 | 70653 | 90761 3 | 20:10.12 | 7:34.50 | 90762 | 124861 4 | 27:44.62 | 9:25.32 | 124862 | 167268 5 | 37:10.19 | 3:55.52 | 167269 | 184945 6 | 41:05.71 | 8:53.35 | 184946 | 224955 7 | 49:59.31 | 19:26.02 | 224956 | 312407
Range status and errors
Selected range
Filename G:\Ripped general\[8660] Wieniawski, Conus, Vieuxtemps – Works for Violin and Orchestra – Soo-Hyun Park\Wieniawski, Conus, Vieuxtemps - Works for Violin and Orchestra - Soo-Hyun Park.wav
Peak level 98.8 % Extraction speed 7.3 X Range quality 100.0 % Test CRC 51FA1138 Copy CRC 51FA1138 Copy OK
No errors occurred
AccurateRip summary
Track 1 not present in databaseTrack 2 not present in databaseTrack 3 not present in databaseTrack 4 not present in databaseTrack 5 not present in databaseTrack 6 not present in databaseTrack 7 not present in database
None of the tracks are present in the AccurateRip database
End of status report

Содержание индексной карты (.CUE)

REM GENRE ClassicalREM DATE 2013REM DISCID 4C104507REM COMMENT "ExactAudioCopy v1.0b3"PERFORMER "Soo-Hyun Park & Nicholas Milton"TITLE "Wieniawski, Conus, Vieuxtemps – Works for Violin and Orchestra – Soo-Hyun Park"FILE "Wieniawski, Conus, Vieuxtemps – Works for Violin and Orchestra – Soo-Hyun Park.flac" WAVE TRACK 01 AUDIO TITLE "Wieniawski - Violin Concerto No. 1 in F sharp minor, Op. 14 - I. Allegro moderato" PERFORMER "Soo-Hyun Park & Nicholas Milton" FLAGS DCP INDEX 01 00:00:00 TRACK 02 AUDIO TITLE "Wieniawski - Violin Concerto No. 1 in F sharp minor, Op. 14 - II. Preghiera. Larghetto -" PERFORMER "Soo-Hyun Park & Nicholas Milton" FLAGS DCP INDEX 01 15:42:03 TRACK 03 AUDIO TITLE "Wieniawski - Violin Concerto No. 1 in F sharp minor, Op. 14 - III. Rondo. Allegro giocoso" PERFORMER "Soo-Hyun Park & Nicholas Milton" FLAGS DCP INDEX 01 20:10:12 TRACK 04 AUDIO TITLE "Conus - Violin Concerto in E minor - Allegro molto -" PERFORMER "Soo-Hyun Park & Nicholas Milton" FLAGS DCP INDEX 00 27:38:08 INDEX 01 27:44:62 TRACK 05 AUDIO TITLE "Conus - Violin Concerto in E minor - Adagio -" PERFORMER "Soo-Hyun Park & Nicholas Milton" FLAGS DCP INDEX 01 37:10:19 TRACK 06 AUDIO TITLE "Conus - Violin Concerto in E minor - Cadenza - Allegro subito" PERFORMER "Soo-Hyun Park & Nicholas Milton" FLAGS DCP INDEX 01 41:05:71 TRACK 07 AUDIO TITLE "Vieuxtemps - Fantasia appassionata in G minor, Op. 35" PERFORMER "Soo-Hyun Park & Nicholas Milton" FLAGS DCP INDEX 00 49:52:63 INDEX 01 49:59:31

Вариант индексной карты (.CUE) с выставленными зазорами и разделением Фантазии

REM GENRE ClassicalREM DATE 2013REM DISCID 4C104507REM COMMENT "ExactAudioCopy v1.0b3"PERFORMER "Soo-Hyun Park & Nicholas Milton"TITLE "Wieniawski, Conus, Vieuxtemps – Works for Violin and Orchestra – Soo-Hyun Park"FILE "Wieniawski, Conus, Vieuxtemps – Works for Violin and Orchestra – Soo-Hyun Park.flac" WAVE TRACK 01 AUDIO FLAGS DCP TITLE "Wieniawski - Violin Concerto No. 1 in F sharp minor, Op. 14 - I. Allegro moderato" PERFORMER "Soo-Hyun Park & Nicholas Milton" INDEX 01 00:00:00 TRACK 02 AUDIO FLAGS DCP TITLE "Wieniawski - Violin Concerto No. 1 in F sharp minor, Op. 14 - II. Preghiera. Larghetto -" PERFORMER "Soo-Hyun Park & Nicholas Milton" INDEX 00 15:37:35 INDEX 01 15:42:03 TRACK 03 AUDIO FLAGS DCP TITLE "Wieniawski - Violin Concerto No. 1 in F sharp minor, Op. 14 - III. Rondo. Allegro giocoso" PERFORMER "Soo-Hyun Park & Nicholas Milton" INDEX 01 20:10:12 TRACK 04 AUDIO FLAGS DCP TITLE "Conus - Violin Concerto in E minor - Allegro molto -" PERFORMER "Soo-Hyun Park & Nicholas Milton" INDEX 00 27:32:64 INDEX 01 27:44:62 TRACK 05 AUDIO FLAGS DCP TITLE "Conus - Violin Concerto in E minor - Adagio -" PERFORMER "Soo-Hyun Park & Nicholas Milton" INDEX 01 37:10:27 TRACK 06 AUDIO FLAGS DCP TITLE "Conus - Violin Concerto in E minor - Cadenza - Allegro subito" PERFORMER "Soo-Hyun Park & Nicholas Milton" INDEX 01 41:05:71 TRACK 07 AUDIO FLAGS DCP TITLE "Vieuxtemps - Fantasia appassionata in G minor, Op. 35 - Allegro moderato - Moderato -" PERFORMER "Soo-Hyun Park & Nicholas Milton" INDEX 00 49:46:50 INDEX 01 49:59:31 TRACK 08 AUDIO FLAGS DCP TITLE "Vieuxtemps - Fantasia appassionata in G minor, Op. 35 - Largo -" PERFORMER "Soo-Hyun Park & Nicholas Milton" INDEX 01 59:07:59 TRACK 09 AUDIO FLAGS DCP TITLE "Vieuxtemps - Fantasia appassionata in G minor, Op. 35 - Finale. Saltarella. Allegro vivace" PERFORMER "Soo-Hyun Park & Nicholas Milton" INDEX 01 65:00:22 INDEX 02 69:11:66
[teatrix.ru].t9925.torrent 
Торрент: Зарегистрирован [ 2015-10-25 20:37 ] · 04516539C8F52BB15A99701975D10ACB8D6C751A

Скачать .torrent

Скачать

13 KB

Статус: проверено
Скачан: 0 раз
Размер: 290 MB
terms.php



Быстрый ответ

Имя:

      
Для отправки сообщений необходимо включить JavaScript
Показать сообщения:    

Текущее время: 06-Дек 19:04

Часовой пояс: UTC + 3


Вы можете начинать темы
Вы можете отвечать на сообщения
Вы не можете редактировать свои сообщения
Вы не можете удалять свои сообщения
Вы не можете голосовать в опросах
Вы не можете прикреплять файлы к сообщениям
Вы можете скачивать файлы