(Classical) Edward Grieg — «Peer Gynt»: Suite № 1, 2; Piano Concerto a-moll Op 16 (Lizzio, Nanut, Tomsic) — 1995, APE (image+.cue) lossless


Статистика раздачи [Обновить пиров]
Размер:  223 MB   |    Зарегистрирован:  1 год 1 месяц   |    Скачан:  0 раз

Полного источника не было: Никогда

 
   
 
 
 

[Цитировать]

«Peer Gynt»: Suite № 1, 2; Piano Concerto a-moll Op 16- Жанр: Classical
Страна-производитель диска: Германия
Год издания диска: 1995
Издатель (лейбл): Point Classics
Номер по каталогу: 2688352
CATALOG: 027726883526
Композитор: Edward Grieg
Аудио кодек: ape
Тип рипа: image+.cue
Битрейт аудио: lossless
Продолжительность: 01h02'19"
Источник: собственный рип
Наличие сканов в содержимом раздачи: нет-Треклист:
Suite № 1 from «Peer Gynt», Op 46
01. I. Morning Mood [00h03'42"]
02. II. Ase's Death [00h04'37"]
03. III. Anitra's Dance [00h03'22"]
04. IV. In The Hall Of The Mountain King [00h02'34"]
Suite № 2 from «Peer Gynt», Op 55
05. I. Ingrid's Lament [00h04'07"]
06. II. Arabian Dance [00h04'36"]
07. III. Return Of Peer Gynt [00h05'17"]
08. IV. Solveig's Song [00h02'39"]
Philarmonia Slavonica, cond. Alberto Lizzio
Piano Concerto a-moll / in A minor, Op 16
09. I. Allegro molto moderato [00h13'35"]
10. II. Adagio [00h07'08"]
11. III. Allegro moderato e marcato [00h10'43"]
Radio Symphony Orchestra Ljubljana, cond. Anton Nanut, Piano – Dubravka Tomšič-

EAC log

Exact Audio Copy V0.99 prebeta 5 from 4. May 2009
Отчёт EAC об извлечении, выполненном 18. августа 2014, 15:41
Grieg / The Best Of Grieg
Дисковод: PIONEER DVD-RW  DVR-111D   Adapter: 0  ID: 1
Режим чтения                 : Достоверность
Использование точного потока : Да
Отключение кэша аудио        : Да
Использование указателей C2  : Нет
Коррекция смещения при чтении                     : 48
Способность читать области Lead-in и Lead-out     : Нет
Заполнение пропущенных сэмплов тишиной            : Да
Удаление блоков с тишиной в начале и конце        : Нет
При вычислениях CRC использовались нулевые сэмплы : Да
Интерфейс                                         : Установленный внешний ASPI-интерфейс
Выходной формат          : Monkey's Audio (без потерь)
Выбранный битрейт        : Normal Lossless Compression
Качество                 : Высокий
Добавление ID3-тэга      : Нет
Утилита сжатия           : C:\Program Files\Monkey's Audio\MAC.exe
TOC извлечённого CD
     Трек |   Старт  | Длительность | Начальный сектор | Конечный сектор
    ---------------------------------------------------------------------
       1  |  0:00.00 |    3:42.05   |           0      |      16654
       2  |  3:42.05 |    4:36.72   |       16655      |      37426
       3  |  8:19.02 |    3:21.38   |       37427      |      52539
       4  | 11:40.40 |    2:33.60   |       52540      |      64074
       5  | 14:14.25 |    4:06.47   |       64075      |      82571
       6  | 18:20.72 |    4:36.28   |       82572      |     103299
       7  | 22:57.25 |    5:16.40   |      103300      |     127039
       8  | 28:13.65 |    2:38.57   |      127040      |     138946
       9  | 30:52.47 |   13:35.30   |      138947      |     200101
      10  | 44:28.02 |    7:08.00   |      200102      |     232201
      11  | 51:36.02 |   10:43.18   |      232202      |     280444
Характеристики диапазона извлечения и сообщения об ошибках
Выбранный диапазон
     Имя файла D:\Музыка lossless\The Best Of Grieg\Grieg - The Best Of Grieg.wav
     Пиковый уровень 76.1 %
     Качество диапазона 100.0 %
     CRC теста 39421CE8
     CRC копии 39421CE8
     Копирование... OK
Ошибок не произошло
AccurateRip: сводка
Трек  1  точное извлечение (доверие 4)  [1262B77E]
Трек  2  точное извлечение (доверие 4)  [DA4476AE]
Трек  3  точное извлечение (доверие 4)  [75565E3E]
Трек  4  точное извлечение (доверие 4)  [4CAADEED]
Трек  5  точное извлечение (доверие 4)  [7617DC80]
Трек  6  точное извлечение (доверие 4)  [CEA4831D]
Трек  7  точное извлечение (доверие 4)  [C768D1D9]
Трек  8  точное извлечение (доверие 4)  [F1A88269]
Трек  9  точное извлечение (доверие 4)  [0200A2A1]
Трек 10  точное извлечение (доверие 4)  [A2835D95]
Трек 11  точное извлечение (доверие 3)  [D82005E3]
Все треки извлечены точно
Конец отчёта

-

CUE

REM GENRE Classical
REM DATE 1995
REM DISCID 8E0E9B0B
REM COMMENT "ExactAudioCopy v0.99pb5"
PERFORMER "Grieg"
TITLE "The Best Of Grieg"
FILE "Grieg - The Best Of Grieg.ape" WAVE
  TRACK 01 AUDIO
    TITLE "Suite № 1 from «Peer Gynt» Op 46 - Morning Mood"
    PERFORMER "Grieg"
    INDEX 01 00:00:00
  TRACK 02 AUDIO
    TITLE "Suite № 1 from «Peer Gynt» Op 46 - Ases Death"
    PERFORMER "Grieg"
    INDEX 01 03:42:05
  TRACK 03 AUDIO
    TITLE "Suite № 1 from «Peer Gynt» Op 46 - Anitra's Dance"
    PERFORMER "Grieg"
    INDEX 01 08:19:02
  TRACK 04 AUDIO
    TITLE "Suite № 1 from «Peer Gynt» Op 46 - In The Hall Of The Mountain King"
    PERFORMER "Grieg"
    INDEX 01 11:40:40
  TRACK 05 AUDIO
    TITLE "Suite № 2 from «Peer Gynt» Op 55 - Ingrid's Lament"
    PERFORMER "Grieg"
    INDEX 00 14:11:52
    INDEX 01 14:14:25
  TRACK 06 AUDIO
    TITLE "Suite № 2 from «Peer Gynt» Op 55 - Arabian Dance"
    PERFORMER "Grieg"
    INDEX 01 18:20:72
  TRACK 07 AUDIO
    TITLE "Suite № 2 from «Peer Gynt» Op 55 - Return Of Peer Gynt"
    PERFORMER "Grieg"
    INDEX 01 22:57:25
  TRACK 08 AUDIO
    TITLE "Suite № 2 from «Peer Gynt» Op 55 - Solveig's Song"
    PERFORMER "Grieg"
    INDEX 01 28:13:65
  TRACK 09 AUDIO
    TITLE "Piano Concerto a-moll Op 16 - I. Allegro molto moderato"
    PERFORMER "Grieg"
    INDEX 00 30:45:62
    INDEX 01 30:52:47
  TRACK 10 AUDIO
    TITLE "Piano Concerto a-moll Op 16 - II. Adagio"
    PERFORMER "Grieg"
    INDEX 00 44:25:00
    INDEX 01 44:28:02
  TRACK 11 AUDIO
    TITLE "Piano Concerto a-moll Op 16 - III. Allegro moderato e marcato"
    PERFORMER "Grieg"
    INDEX 00 51:33:25
    INDEX 01 51:36:02
-
[teatrix.ru].t9926.torrent 
Торрент: Зарегистрирован [ 2015-10-25 20:37 ] · 20764A2D3D4FDAB5A0AF078808C28DC49C24B91A

Скачать .torrent

Скачать

18 KB

Статус: проверено
Скачан: 0 раз
Размер: 223 MB
terms.php



Быстрый ответ

Имя:

      
Для отправки сообщений необходимо включить JavaScript
Показать сообщения:    

Текущее время: 10-Дек 02:15

Часовой пояс: UTC + 3


Вы можете начинать темы
Вы можете отвечать на сообщения
Вы не можете редактировать свои сообщения
Вы не можете удалять свои сообщения
Вы не можете голосовать в опросах
Вы не можете прикреплять файлы к сообщениям
Вы можете скачивать файлы