(Classical) Christopher Rouse, Jacques Ibert - Flute Concertos - Katherine Bryan, Royal Scottish National Orchestra, Jac van Steen - 2013, FLAC (image+.cue) lossless


Статистика раздачи [Обновить пиров]
Размер:  241 MB   |    Зарегистрирован:  1 год 1 месяц   |    Скачан:  0 раз

Полного источника не было: Никогда

 
   
 
 
 

[Цитировать]

Christopher Rouse, Jacques Ibert - Flute Concertos - Katherine Bryan, Royal Scottish National Orchestra, Jac van Steen
Жанр: Classical
Страна-производитель диска: UK
Год издания диска: 2013
Издатель (лейбл): Linn Records
Номер по каталогу: CKD 420
Дата записи: 2012
Аудиокодек: FLAC
Тип рипа: image+.cue
Битрейт аудио: lossless
Продолжительность: 64:15
Источник: собственный рип
Наличие сканов в содержимом раздачи: да
Треклист:
Christopher Rouse (b. 1949)
[1]-[5] Flute Concerto (1993)
Jacques Ibert (1890-1962)
[6]-[8] Concerto for Flute and Orchestra (1934)
Claude Debussy (1862-1918)
[9] Syrinx (1913)
Frank Martin (1890-1974)
[10] Ballade (1939)
Исполнители:
Katherine Bryan flute
Royal Scottish National Orchestra
Jac van Steen
conductor

Лог создания рипа

Exact Audio Copy V1.0 beta 3 from 29. August 2011
EAC extraction logfile from 10. July 2014, 12:39
Katherine Bryan, Royal Scottish National Orchestra, Jac van Steen / Rouse, Ibert - Flute Concertos
Used drive : HL-DT-STDVDRRW GWA-4164B Adapter: 5 ID: 0
Read mode : SecureUtilize accurate stream : YesDefeat audio cache : YesMake use of C2 pointers : No
Read offset correction : 102Overread into Lead-In and Lead-Out : NoFill up missing offset samples with silence : YesDelete leading and trailing silent blocks : NoNull samples used in CRC calculations : YesUsed interface : Native Win32 interface for Win NT & 2000
Used output format : User Defined EncoderSelected bitrate : 896 kBit/sQuality : HighAdd ID3 tag : NoCommand line compressor : C:\Program Files\Exact Audio Copy\FLAC\FLAC.EXEAdditional command line options : -V -8 %source%
TOC of the extracted CD
Track | Start | Length | Start sector | End sector --------------------------------------------------------- 1 | 0:00.00 | 4:09.46 | 0 | 18720 2 | 4:09.46 | 4:23.72 | 18721 | 38517 3 | 8:33.43 | 10:30.15 | 38518 | 85782 4 | 19:03.58 | 4:50.64 | 85783 | 107596 5 | 23:54.47 | 6:00.27 | 107597 | 134623 6 | 29:54.74 | 4:51.43 | 134624 | 156491 7 | 34:46.42 | 7:19.47 | 156492 | 189463 8 | 42:06.14 | 9:15.32 | 189464 | 231120 9 | 51:21.46 | 3:32.10 | 231121 | 247030 10 | 54:53.56 | 8:19.11 | 247031 | 284466
Range status and errors
Selected range
Filename D:\temp\Music\Rouse, Ibert - Flute Concertos\Rouse, Ibert - Flute Concertos.wav
Peak level 95.6 % Extraction speed 3.0 X Range quality 100.0 % Test CRC 10CA3446 Copy CRC 10CA3446 Copy OK
No errors occurred
AccurateRip summary
Track 1 accurately ripped (confidence 1) [B2EB9189] (AR v2)Track 2 accurately ripped (confidence 1) [C4EC8321] (AR v2)Track 3 accurately ripped (confidence 1) [C4540707] (AR v2)Track 4 accurately ripped (confidence 1) [9B73E9D9] (AR v2)Track 5 accurately ripped (confidence 1) [1226013E] (AR v2)Track 6 accurately ripped (confidence 1) [50C8FD0D] (AR v2)Track 7 accurately ripped (confidence 1) [A4D4FFA8] (AR v2)Track 8 accurately ripped (confidence 1) [95A21F38] (AR v2)Track 9 accurately ripped (confidence 1) [5BDCAA3D] (AR v2)Track 10 accurately ripped (confidence 1) [2FC9D1B4] (AR v2)
All tracks accurately ripped
End of status report
==== Log checksum 83A468146B07DA4C22E8C77B73761A8F785A390C9F812C29BC867597B24F25FE ====
[teatrix.ru].t9927.torrent 
Торрент: Зарегистрирован [ 2015-10-25 20:37 ] · EA747C12D1B88BEBEEA61C091B54F03FB693E42D

Скачать .torrent

Скачать

39 KB

Статус: проверено
Скачан: 0 раз
Размер: 241 MB
terms.php



Быстрый ответ

Имя:

      
Для отправки сообщений необходимо включить JavaScript
Показать сообщения:    

Текущее время: 08-Дек 21:12

Часовой пояс: UTC + 3


Вы можете начинать темы
Вы можете отвечать на сообщения
Вы не можете редактировать свои сообщения
Вы не можете удалять свои сообщения
Вы не можете голосовать в опросах
Вы не можете прикреплять файлы к сообщениям
Вы можете скачивать файлы