(Classical) Joseph Haydn - Concertos Pour Violoncelle № 1 & 2 (Anne Gastinel; "Солисты Москвы"/Юрий Башмет) - 1998, FLAC (image+.cue) lossless


Статистика раздачи [Обновить пиров]
Размер:  247 MB   |    Зарегистрирован:  1 год 1 месяц   |    Скачан:  0 раз

Полного источника не было: 3 месяца 20 дней

 
   
 
 
 

[Цитировать]

Joseph Haydn - Concertos Pour Violoncelle № 1 & 2
(Anne Gastinel; "Солисты Москвы"/Юрий Башмет)
Joseph Haydn (1732-1809) Жанр: Classical
Страна-производитель диска: France
Год издания диска: 1998
Издатель (лейбл): Naïve, AUVIDIS-VALOIS
Номер по каталогу: V 4820
Дата записи: 1998
Аудиокодек: FLAC
Тип рипа: image+.cue
Битрейт аудио: lossless
Продолжительность: 0:48:51
Источник: JVA
Наличие сканов в содержимом раздачи: да
Треклист:
Concerto Pour Violoncelle № 1, en ut majeur, Hob. VIIb/1
01. I. Moderate* (9:48)
02. II. Adagio* (7:57)
03. III. Finale : Allegro molto (6:48)
Concerto Pour Violoncelle № 2, en re majeur, Hob. VIIb/2
04. I. Allegro moderato* (14:12)
05. II. Adagio* (5:20)
06. III. Rondo - Allegro (4:29)
* Cadences Anne Gastinel
Исполнители:
Anne Gastinel violoncelle Matleo Gofriller(1733), de Pablo Casals
Solistes De Moscou
Direction Yuri Bashmet

Лог создания рипа

Exact Audio Copy V0.99 prebeta 5 from 4. May 2009
Отчёт EAC об извлечении, выполненном 12. августа 2014, 14:23
Joseph Haydn / Cellokonzerte 1 & 2
Дисковод: ATAPI iHAS124 E Adapter: 0 ID: 0
Режим чтения : ДостоверностьИспользование точного потока : ДаОтключение кэша аудио : ДаИспользование указателей C2 : Нет
Коррекция смещения при чтении : 6Способность читать области Lead-in и Lead-out : НетЗаполнение пропущенных сэмплов тишиной : ДаУдаление блоков с тишиной в начале и конце : НетПри вычислениях CRC использовались нулевые сэмплы : ДаИнтерфейс : Встроенный Win32-интерфейс для Win NT/2000
Выходной формат : Пользовательский кодировщикВыбранный битрейт : 768 kBit/sКачество : ВысокийДобавление ID3-тэга : НетУтилита сжатия : C:\Program Files\Exact Audio Copy\Flac\flac.exeДополнительные параметры : -6 -V -T "ARTIST=%a" -T "TITLE=%t" -T "ALBUM=%g" -T "DATE=%y" -T "TRACKNUMBER=%n" -T "GENRE=%m" -T "COMMENT=%e" %s -o %d
TOC извлечённого CD
Трек | Старт | Длительность | Начальный сектор | Конечный сектор --------------------------------------------------------------------- 1 | 0:00.32 | 9:49.68 | 32 | 44274 2 | 9:50.25 | 7:58.27 | 44275 | 80151 3 | 17:48.52 | 6:54.43 | 80152 | 111244 4 | 24:43.20 | 14:16.22 | 111245 | 175466 5 | 38:59.42 | 5:22.33 | 175467 | 199649 6 | 44:22.00 | 4:29.32 | 199650 | 219856
Характеристики диапазона извлечения и сообщения об ошибках
Выбранный диапазон
Имя файла C:\EAC\Joseph Haydn - Cellokonzerte 1 & 2\J.Haydn - Cellokonzerte 1 & 2.wav
Пиковый уровень 86.5 % Качество диапазона 100.0 % CRC копии F8E6F967 Копирование... OK
Ошибок не произошло
AccurateRip: сводка
Трек 1 точное извлечение (доверие 4) [C4EFD2AB]Трек 2 точное извлечение (доверие 4) [87FF782F]Трек 3 точное извлечение (доверие 4) [A34A9A03]Трек 4 точное извлечение (доверие 4) [18B9E39E]Трек 5 точное извлечение (доверие 4) [B10FA65E]Трек 6 точное извлечение (доверие 4) [9F4771B6]
Все треки извлечены точно
Конец отчёта

Лог проверки качества

Скриншот спектра частот

[teatrix.ru].t9928.torrent 
Торрент: Зарегистрирован [ 2015-10-25 20:37 ] · 3775D6DF09826A1A98EC22AE91A8F5E5D6132424

Скачать .torrent

Скачать

21 KB

Статус: проверено
Скачан: 0 раз
Размер: 247 MB
terms.php



Быстрый ответ

Имя:

      
Для отправки сообщений необходимо включить JavaScript
Показать сообщения:    

Текущее время: 11-Дек 01:26

Часовой пояс: UTC + 3


Вы можете начинать темы
Вы можете отвечать на сообщения
Вы не можете редактировать свои сообщения
Вы не можете удалять свои сообщения
Вы не можете голосовать в опросах
Вы не можете прикреплять файлы к сообщениям
Вы можете скачивать файлы