(Classical) Аренский – Скрипичный концерт; Чайковский – Сюита № 3 / Arensky – Violin Concerto; Tchaikovsky – Suite No. 3 (Стадлер, Чернушенко; Светланов / Stadler, Chernushenko; Svetlanov) - 1987, FLAC (image+.cue) lossless


Статистика раздачи [Обновить пиров]
Размер:  291 MB   |    Зарегистрирован:  1 год 1 месяц   |    Скачан:  0 раз

Полного источника не было: Никогда

 
   
 
 
 

[Цитировать]

Аренский – Скрипичный концерт; Чайковский – Сюита № 3 / Arensky – Violin Concerto; Tchaikovsky – Suite No. 3 (Стадлер, Чернушенко; Светланов / Stadler, Chernushenko; Svetlanov)
Жанр: Classical
Страна-производитель диска: Англия
Год издания диска: 1987
Издатель (лейбл): Olympia
Номер по каталогу: OCD 106
Дата записи: не указана (Аренский: 1986,
Аудиокодек: FLAC
Тип рипа: image+.cue
Битрейт аудио: lossless
Продолжительность: 01:05:12
Источник: odeonmusic
Наличие сканов в содержимом раздачи: да (в буклете не было текста?)
Треклист:
Антон Аренский (1861 — 1906).
Скрипичный концерт a-moll, op. 54 (1891).
01. Allegro. — [22:41].
(02.) — Adagio non troppo. — Allegro. — Cadenza. —
(03.) — Tempo di valse. —
(04.) — Poco meno mosso. — Tempo I. — Cadenza. — Tempo I. — Poco più mosso.
Петр Чайковский (1840 — 1893).
Оркестровая сюита № 3 G-dur, op. 55 (1884).
02. I. Элегия. Andantino molto cantabile [11:39].
03. II. Меланхолический вальс. Allegro [06:11].
04. III. Скерцо. Presto [04:52].
05. IV. Тема с вариациями [19:27].
(08.) [Тема.] Andante con moto. —
(09.) — Вариация I. —
(10.) — Вариация II. Molto più mosso. —
(11.) — Вариация III. Tempo del tema. —
(12.) — Вариация IV. Tempo del tema. —
(13.) — Вариация V. Allegro risoluto. —
(14.) — Вариация VI. Allegro vivace. —
(15.) — Вариация VII. Moderato. —
(16.) — Вариация VIII. Largo. —
(17.) — Вариация IX. Allegro molto vivace. — Più presto. — Cadenza. —
(18.) — Вариация X. Allegro vivo e un poco rubato. —
(19.) — Вариация XI. Moderato mosso. —
(20.) — Вариация XII. Финал. Полонез. Moderato assai. — Tempo di polacca, molto brillante.
Исполнители:
Аренский.
Сергей Стадлер (скрипка).
Симфонический оркестр Ленинградской филармонии.
Дирижер Владислав Чернушенко.
Чайковский.
Государственный академический симфонический оркестр СССР.
Дирижер Евгений Светланов.

Лог создания рипа

Exact Audio Copy V1.0 beta 3 from 29. August 2011
EAC extraction logfile from 1. January 2013, 16:51
Various Artists / Arensky - Violin Concerto; Tchaikovsky - Suite No.3 - VA
Used drive : TSSTcorpCDDVDW SH-222BB Adapter: 2 ID: 1
Read mode : SecureUtilize accurate stream : YesDefeat audio cache : YesMake use of C2 pointers : No
Read offset correction : 6Overread into Lead-In and Lead-Out : NoFill up missing offset samples with silence : YesDelete leading and trailing silent blocks : NoNull samples used in CRC calculations : YesUsed interface : Native Win32 interface for Win NT & 2000
Used output format : User Defined EncoderSelected bitrate : 1024 kBit/sQuality : HighAdd ID3 tag : NoCommand line compressor : C:\Program Files\Exact Audio Copy\Flac\flac.exeAdditional command line options : -8 -V -T "TITLE=%title%" -T "ARTIST=%artist%" -T "ALBUMARTIST=%albumartist%" -T "ALBUM=%albumtitle%" -T "DATE=%year%" -T "TRACKNUMBER=%tracknr%" -T "TRACKTOTAL=%numtracks%" -T "GENRE=%genre%" -T "COMMENT=%comment%" -T "PERFORMER=%albuminterpret%" -T "COMPOSER=%composer%" %source% -o %dest%
TOC of the extracted CD
Track | Start | Length | Start sector | End sector --------------------------------------------------------- 1 | 0:00.00 | 22:49.03 | 0 | 102677 2 | 22:49.03 | 11:45.35 | 102678 | 155587 3 | 34:34.38 | 6:14.35 | 155588 | 183672 4 | 40:48.73 | 4:56.60 | 183673 | 205932 5 | 45:45.58 | 19:27.00 | 205933 | 293457
Range status and errors
Selected range
Filename G:\Ripped general\[1520] Arensky – Violin Concerto; Tchaikovsky – Suite No.3 – VA\Arensky - Violin Concerto; Tchaikovsky - Suite No.3 - VA.wav
Peak level 98.8 % Extraction speed 7.8 X Range quality 100.0 % Test CRC 334DF34D Copy CRC 334DF34D Copy OK
No errors occurred
AccurateRip summary
Track 1 accurately ripped (confidence 2) [5FB7AFA5] (AR v1)Track 2 accurately ripped (confidence 2) [C411427B] (AR v1)Track 3 accurately ripped (confidence 2) [B90239B4] (AR v1)Track 4 accurately ripped (confidence 2) [AF9343F1] (AR v1)Track 5 accurately ripped (confidence 2) [5AECAA3D] (AR v1)
All tracks accurately ripped
End of status report

Содержание индексной карты (.CUE)

REM GENRE ClassicalREM DISCID 3C0F4805REM COMMENT "ExactAudioCopy v1.0b3"PERFORMER "Various Artists"TITLE "Arensky – Violin Concerto; Tchaikovsky – Suite No. 3 – VA"FILE "Arensky – Violin Concerto; Tchaikovsky – Suite No. 3 – VA.flac" WAVE TRACK 01 AUDIO TITLE "Arensky - Violin Concerto in A minor, Op. 54" PERFORMER "Sergei Stadler & Vladislav Chernushenko" INDEX 01 00:00:00 TRACK 02 AUDIO TITLE "Tchaikovsky - Orchestral Suite No. 3 in G major, op. 55 - I. Elegie. Andantino molto cantabile" PERFORMER "Evgeny Svetlanov" INDEX 00 22:41:03 INDEX 01 22:49:03 TRACK 03 AUDIO TITLE "Tchaikovsky - Orchestral Suite No. 3 in G major, op. 55 - II. Valse melancolique. Allegro moderato" PERFORMER "Evgeny Svetlanov" INDEX 00 34:28:43 INDEX 01 34:34:38 TRACK 04 AUDIO TITLE "Tchaikovsky - Orchestral Suite No. 3 in G major, op. 55 - III. Scherzo. Presto" PERFORMER "Evgeny Svetlanov" INDEX 00 40:45:53 INDEX 01 40:48:73 TRACK 05 AUDIO TITLE "Tchaikovsky - Orchestral Suite No. 3 in G major, op. 55 - IV. Tema con variazioni. Andante con moto" PERFORMER "Evgeny Svetlanov" INDEX 00 45:41:23 INDEX 01 45:45:58

Вариант индексной карты (.CUE) с разделением Концерта и Вариаций на отдельные треки

REM GENRE ClassicalREM DISCID 3C0F4805REM COMMENT "ExactAudioCopy v1.0b3"PERFORMER "Various Artists"TITLE "Arensky – Violin Concerto; Tchaikovsky – Suite No. 3 – VA"FILE "Arensky – Violin Concerto; Tchaikovsky – Suite No. 3 – VA.wav" WAVE TRACK 01 AUDIO TITLE "Arensky - Violin Concerto in A minor, Op. 54 - Allegro -" PERFORMER "Sergei Stadler & Vladislav Chernushenko" INDEX 01 00:00:00 TRACK 02 AUDIO TITLE "Arensky - Violin Concerto in A minor, Op. 54 - Adagio non troppo - Allegro -" PERFORMER "Sergei Stadler & Vladislav Chernushenko" INDEX 01 06:27:67 TRACK 03 AUDIO TITLE "Arensky - Violin Concerto in A minor, Op. 54 - Tempo di valse -" PERFORMER "Sergei Stadler & Vladislav Chernushenko" INDEX 01 11:09:27 TRACK 04 AUDIO TITLE "Arensky - Violin Concerto in A minor, Op. 54 - Tempo I" PERFORMER "Sergei Stadler & Vladislav Chernushenko" INDEX 01 16:28:11 TRACK 05 AUDIO TITLE "Tchaikovsky - Orchestral Suite No. 3 in G major, op. 55 - I. Elegie. Andantino molto cantabile" PERFORMER "Evgeny Svetlanov" INDEX 00 22:41:03 INDEX 01 22:49:03 TRACK 06 AUDIO TITLE "Tchaikovsky - Orchestral Suite No. 3 in G major, op. 55 - II. Valse melancolique. Allegro moderato" PERFORMER "Evgeny Svetlanov" INDEX 00 34:28:43 INDEX 01 34:34:38 TRACK 07 AUDIO TITLE "Tchaikovsky - Orchestral Suite No. 3 in G major, op. 55 - III. Scherzo. Presto" PERFORMER "Evgeny Svetlanov" INDEX 00 40:45:53 INDEX 01 40:48:73 TRACK 08 AUDIO TITLE "Tchaikovsky - Orchestral Suite No. 3 in G major, op. 55 - IV. Tema con variazioni - Tema. Andante con moto -" PERFORMER "Evgeny Svetlanov" INDEX 00 45:41:23 INDEX 01 45:45:58 TRACK 09 AUDIO TITLE "Tchaikovsky - Orchestral Suite No. 3 in G major, op. 55 - IV. Tema con variazioni - Var. I -" PERFORMER "Evgeny Svetlanov" INDEX 01 46:36:22 TRACK 10 AUDIO TITLE "Tchaikovsky - Orchestral Suite No. 3 in G major, op. 55 - IV. Tema con variazioni - Var. II. Molto piu mosso -" PERFORMER "Evgeny Svetlanov" INDEX 01 47:25:41 TRACK 11 AUDIO TITLE "Tchaikovsky - Orchestral Suite No. 3 in G major, op. 55 - IV. Tema con variazioni - Var. III. Tempo del Tema -" PERFORMER "Evgeny Svetlanov" INDEX 01 48:05:69 TRACK 12 AUDIO TITLE "Tchaikovsky - Orchestral Suite No. 3 in G major, op. 55 - IV. Tema con variazioni - Var. IV. Tempo del Tema -" PERFORMER "Evgeny Svetlanov" INDEX 01 49:00:69 TRACK 13 AUDIO TITLE "Tchaikovsky - Orchestral Suite No. 3 in G major, op. 55 - IV. Tema con variazioni - Var. V. Allegro risoluto -" PERFORMER "Evgeny Svetlanov" INDEX 01 50:20:42 TRACK 14 AUDIO TITLE "Tchaikovsky - Orchestral Suite No. 3 in G major, op. 55 - IV. Tema con variazioni - Var. VI. Allegro vivace -" PERFORMER "Evgeny Svetlanov" INDEX 01 51:30:49 TRACK 15 AUDIO TITLE "Tchaikovsky - Orchestral Suite No. 3 in G major, op. 55 - IV. Tema con variazioni - Var. VII. Moderato -" PERFORMER "Evgeny Svetlanov" INDEX 01 52:01:05 TRACK 16 AUDIO TITLE "Tchaikovsky - Orchestral Suite No. 3 in G major, op. 55 - IV. Tema con variazioni - Var. VIII. Largo -" PERFORMER "Evgeny Svetlanov" INDEX 01 52:29:65 TRACK 17 AUDIO TITLE "Tchaikovsky - Orchestral Suite No. 3 in G major, op. 55 - IV. Tema con variazioni - Var. IX. Allegro molto vivace - Cadenza -" PERFORMER "Evgeny Svetlanov" INDEX 01 53:29:19 TRACK 18 AUDIO TITLE "Tchaikovsky - Orchestral Suite No. 3 in G major, op. 55 - IV. Tema con variazioni - Var. X. Allegro vivo e un poco rubato -" PERFORMER "Evgeny Svetlanov" INDEX 01 54:32:37 TRACK 19 AUDIO TITLE "Tchaikovsky - Orchestral Suite No. 3 in G major, op. 55 - IV. Tema con variazioni - Var. XI. Moderato mosso -" PERFORMER "Evgeny Svetlanov" INDEX 01 57:26:50 TRACK 20 AUDIO TITLE "Tchaikovsky - Orchestral Suite No. 3 in G major, op. 55 - IV. Tema con variazioni - Var. XII. Finale. Polacca" PERFORMER "Evgeny Svetlanov" INDEX 01 59:33:72
[teatrix.ru].t9929.torrent 
Торрент: Зарегистрирован [ 2015-10-25 20:37 ] · 3013B10C5C914C7E575CFA3C822447F27E28C56C

Скачать .torrent

Скачать

12 KB

Статус: проверено
Скачан: 0 раз
Размер: 291 MB
terms.php



Быстрый ответ

Имя:

      
Для отправки сообщений необходимо включить JavaScript
Показать сообщения:    

Текущее время: 04-Дек 19:20

Часовой пояс: UTC + 3


Вы можете начинать темы
Вы можете отвечать на сообщения
Вы не можете редактировать свои сообщения
Вы не можете удалять свои сообщения
Вы не можете голосовать в опросах
Вы не можете прикреплять файлы к сообщениям
Вы можете скачивать файлы