(Classical) Jean Sibelius - Violin Concerto; Karelia Suite; Finlandia; Valse Triste; The Swan of Tuonela - Jennifer Pike, Bergen Philharmonic Orchestra, Andrew Davis - 2014, FLAC (image+.cue) lossless


Статистика раздачи [Обновить пиров]
Размер:  317 MB   |    Зарегистрирован:  1 год 1 месяц   |    Скачан:  0 раз

Полного источника не было: Никогда

 
   
 
 
 

[Цитировать]

Jean Sibelius - Violin Concerto; Karelia Suite; Finlandia; Valse Triste; The Swan of Tuonela - Jennifer Pike, Bergen Philharmonic Orchestra, Andrew Davis
Жанр: Classical
Страна-производитель диска: UK
Год издания диска: 2014
Издатель (лейбл): Chandos Records
Номер по каталогу: CHSA 5134
Дата записи: 2013
Аудиокодек: FLAC
Тип рипа: image+.cue
Битрейт аудио: lossless
Продолжительность: 78:24
Источник: собственный рип
Наличие сканов в содержимом раздачи: да
Треклист:
Jean Sibelius (1865 – 1957)
[1]-[3] Concerto for Violin and Orchestra in D minor, Op. 47
[4]-[6] Karelia Suite, Op. 11
[7] The Swan of Tuonela, Op. 22 No. 2
from the Lemminkäinen Legends
[8] Valse lyrique, Op. 96a
[9] Valse triste, Op. 44 No. 1
[10] Andante festivo, JS 34b
[11] Finlandia, Op. 26
Исполнители:
Jennifer Pike violin
Bergen Philharmonic Orchestra
Sir Andrew Davis

Лог создания рипа

Exact Audio Copy V1.0 beta 3 from 29. August 2011
EAC extraction logfile from 28. July 2014, 21:47
Bergen Philharmonic Orchestra, Andrew Davis / Sibelius - Violin Concerto and other works
Used drive : HL-DT-STDVDRAM GU70N Adapter: 0 ID: 0
Read mode : SecureUtilize accurate stream : YesDefeat audio cache : YesMake use of C2 pointers : No
Read offset correction : 48Overread into Lead-In and Lead-Out : NoFill up missing offset samples with silence : YesDelete leading and trailing silent blocks : NoNull samples used in CRC calculations : YesUsed interface : Native Win32 interface for Win NT & 2000
Used output format : User Defined EncoderSelected bitrate : 128 kBit/sQuality : HighAdd ID3 tag : NoCommand line compressor : C:\Program Files (x86)\Exact Audio Copy\Flac\flac.exeAdditional command line options : -V -8 -T "Date=%year%" -T "Genre=%genre%" %source%
TOC of the extracted CD
Track | Start | Length | Start sector | End sector --------------------------------------------------------- 1 | 0:00.00 | 15:51.38 | 0 | 71362 2 | 15:51.38 | 8:20.35 | 71363 | 108897 3 | 24:11.73 | 7:53.10 | 108898 | 144382 4 | 32:05.08 | 4:07.20 | 144383 | 162927 5 | 36:12.28 | 7:17.10 | 162928 | 195712 6 | 43:29.38 | 4:35.35 | 195713 | 216372 7 | 48:04.73 | 8:23.30 | 216373 | 254127 8 | 56:28.28 | 4:14.00 | 254128 | 273177 9 | 60:42.28 | 5:09.65 | 273178 | 296417 10 | 65:52.18 | 4:11.65 | 296418 | 315307 11 | 70:04.08 | 8:18.67 | 315308 | 352724
Range status and errors
Selected range
Filename J:\New Music\CHSA_05134 - Sibelius - Violin Concerto; Karelia Suite; Finlandia\Sibelius - Violin Concerto and other works.wav
Peak level 98.3 % Extraction speed 2.3 X Range quality 100.0 % Test CRC C265CC1E Copy CRC C265CC1E Copy OK
No errors occurred
AccurateRip summary
Track 1 accurately ripped (confidence 2) [C3F08A14] (AR v2)Track 2 accurately ripped (confidence 2) [F35A36CA] (AR v2)Track 3 accurately ripped (confidence 2) [B3E6D266] (AR v2)Track 4 accurately ripped (confidence 2) [E49A6978] (AR v2)Track 5 accurately ripped (confidence 2) [EAEF6535] (AR v2)Track 6 accurately ripped (confidence 2) [DABEB8B9] (AR v2)Track 7 accurately ripped (confidence 2) [8B2ACF82] (AR v2)Track 8 accurately ripped (confidence 2) [6A826F82] (AR v2)Track 9 accurately ripped (confidence 2) [0F06D0E0] (AR v2)Track 10 accurately ripped (confidence 2) [2520A768] (AR v2)Track 11 accurately ripped (confidence 2) [147095C0] (AR v2)
All tracks accurately ripped
End of status report
==== Log checksum FF163E6BEC4B4C247B0865635DFC325EF04037BD13E87392173ACE0147156004 ====
[teatrix.ru].t9930.torrent 
Торрент: Зарегистрирован [ 2015-10-25 20:37 ] · FF6ABF4F867C7154DAB2633B590F939E6085B67A

Скачать .torrent

Скачать

26 KB

Статус: проверено
Скачан: 0 раз
Размер: 317 MB
terms.php



Быстрый ответ

Имя:

      
Для отправки сообщений необходимо включить JavaScript
Показать сообщения:    

Текущее время: 04-Дек 06:53

Часовой пояс: UTC + 3


Вы можете начинать темы
Вы можете отвечать на сообщения
Вы не можете редактировать свои сообщения
Вы не можете удалять свои сообщения
Вы не можете голосовать в опросах
Вы не можете прикреплять файлы к сообщениям
Вы можете скачивать файлы