(Classical) Шостакович, Janacek - Violin Concertos - Baiba Skride; Munchner Philharmoniker, Mikko Franck; Rundfunk-Sinfonieorchester Berlin, Marek Janowski - 2005, FLAC (image+.cue) lossless


Статистика раздачи [Обновить пиров]
Размер:  240 MB   |    Зарегистрирован:  1 год 1 месяц   |    Скачан:  2 раза

Полного источника не было: 3 дня

 
   
 
 
 

[Цитировать]

Шостакович, Janacek - Violin Concertos - Baiba Skride; Münchner Philharmoniker, Mikko Franck; Rundfunk-Sinfonieorchester Berlin, Marek Janowski
Жанр: Classical
Год издания диска: 2005
Издатель (лейбл): Sony Classical
Дата записи: 2004
Аудиокодек: FLAC
Тип рипа: image+.cue
Битрейт аудио: lossless
Продолжительность: 52:39
Источник: собственный рип
Наличие сканов в содержимом раздачи: да
Треклист:
Дмитрий Шостакович (1906-1975)
[1]-[4] Концерт для скрипки с оркестром №1 ля минор, Op.77
Münchner Philharmoniker
Mikko Franck
Leoš Janáček (1854-1928)
[5] Violin Concerto "The Wandering of a Little Soul"
Rundfunk-Sinfonieorchester Berlin
Marek Janowski
Исполнители:
Baiba Skride violin
Münchner Philharmoniker
Mikko Franck
Rundfunk-Sinfonieorchester Berlin
Marek Janowski

Лог создания рипа

Exact Audio Copy V1.0 beta 3 from 29. August 2011
EAC extraction logfile from 16. July 2014, 13:39
Baiba Skride / Shostakovich, Janacek - Violin Concertos
Used drive : HL-DT-STDVDRRW GWA-4164B Adapter: 5 ID: 0
Read mode : SecureUtilize accurate stream : YesDefeat audio cache : YesMake use of C2 pointers : No
Read offset correction : 102Overread into Lead-In and Lead-Out : NoFill up missing offset samples with silence : YesDelete leading and trailing silent blocks : NoNull samples used in CRC calculations : YesUsed interface : Native Win32 interface for Win NT & 2000
Used output format : User Defined EncoderSelected bitrate : 896 kBit/sQuality : HighAdd ID3 tag : NoCommand line compressor : C:\Program Files\Exact Audio Copy\FLAC\FLAC.EXEAdditional command line options : -V -8 %source%
TOC of the extracted CD
Track | Start | Length | Start sector | End sector --------------------------------------------------------- 1 | 0:00.00 | 13:10.59 | 0 | 59308 2 | 13:10.59 | 6:41.70 | 59309 | 89453 3 | 19:52.54 | 14:50.04 | 89454 | 156207 4 | 34:42.58 | 6:15.00 | 156208 | 184332 5 | 40:57.58 | 11:41.34 | 184333 | 236941
Range status and errors
Selected range
Filename D:\temp\Music\Shostakovich, Janacek - Violin Concertos - Skride\Shostakovich, Janacek - Violin Concertos.wav
Peak level 100.0 % Extraction speed 3.5 X Range quality 100.0 % Test CRC FF1F4B6B Copy CRC FF1F4B6B Copy OK
No errors occurred
AccurateRip summary
Track 1 accurately ripped (confidence 7) [5E8ED4BD] (AR v2)Track 2 accurately ripped (confidence 7) [B725CAFA] (AR v2)Track 3 accurately ripped (confidence 7) [29DB9800] (AR v2)Track 4 accurately ripped (confidence 7) [A7A23FD2] (AR v2)Track 5 accurately ripped (confidence 7) [612619D4] (AR v2)
All tracks accurately ripped
End of status report
==== Log checksum D1174D7E141D8650B00DF7BD4FB2F587D9E2485DC50375ABAB2B7603D18E8363 ====
[teatrix.ru].t9931.torrent 
Торрент: Зарегистрирован [ 2015-10-25 20:37 ] · A1EA9DAE5DE843FD89BC4180EEFF53FAE8D211B6

Скачать .torrent

Скачать

40 KB

Статус: проверено
Скачан: 2 раз
Размер: 240 MB
terms.php



Быстрый ответ

Имя:

      
Для отправки сообщений необходимо включить JavaScript
Показать сообщения:    

Текущее время: 09-Дек 06:52

Часовой пояс: UTC + 3


Вы можете начинать темы
Вы можете отвечать на сообщения
Вы не можете редактировать свои сообщения
Вы не можете удалять свои сообщения
Вы не можете голосовать в опросах
Вы не можете прикреплять файлы к сообщениям
Вы можете скачивать файлы