(Classical) The Romantic Cello Concerto – Vol. 4: Pfitzner (Gerhardt, Gergova, Weigle) - 2014, FLAC (image+.cue) lossless


Статистика раздачи [Обновить пиров]
Размер:  274 MB   |    Зарегистрирован:  1 год 2 месяца   |    Скачан:  0 раз

Полного источника не было: Никогда

 
   
 
 
 

[Цитировать]

The Romantic Cello Concerto – Vol. 4: Pfitzner (Gerhardt, Gergova, Weigle)
Жанр: Classical
Страна-производитель диска: Франция
Год издания диска: 2014
Издатель (лейбл): Hyperion
Номер по каталогу: CDA67906
Дата записи: 18 — 21 июня 2012 г., Берлин.
Аудиокодек: FLAC
Тип рипа: image+.cue
Битрейт аудио: lossless
Продолжительность: 01:07:30
Источник: odeonmusic
Наличие сканов в содержимом раздачи: да
Треклист:
Ганс Эрих Пфицнер (1869 — 1949).
Виолончельный концерт a-moll, op. posth. (1888).
01. I. Andante molto sostenuto. — Allegro [10:25].
02. II. Adagio molto tranquillo. — Allegro. — Cadenza. — Andante molto sostenuto [12:51].
Виолончельный концерт № 2 a-moll, op. 52 (1943).
03. I. Ruhig [07:37].
04. II. Nicht zu schnell [03:00].
05. III. Feierlich. — [02:49].
06. IV. Allegretto [04:33].
Виолончельный концерт № 1 G-dur, op. 42 (1935).
07. Ziemlich ruhig, schwebend. — [03:29].
08. — Sehr langsam. — Beschleunigt. — Allegro. — [03:58].
09. — Ruhiges Anfangstempo. — [02:00].
10. — A tempo. — [01:51].
11. — Langsamer a tempo [03:03].
Дуэт для скрипки и виолончели с малым оркестром, op. 43 (1937).
12. [I.] Allegro moderato. — [05:39].
13. [II.] Moderato. — [01:50].
14. [III.] Ganze Takte [04:23].
Исполнители:
Gergana Gergova (скрипка, 12 — 14),
Alban Gerhardt (виолончель).
Rundfunk-Sinfonieorchester Berlin.
Дирижер Sebastian Weigle.

Лог создания рипа

Exact Audio Copy V1.0 beta 3 from 29. August 2011
EAC extraction logfile from 9. April 2014, 17:55
Alban Gerhardt / Pfitzner - Cello Concertos - Alban Gerhardt (Romantic Cello Concerto – 4)
Used drive : TSSTcorpCDDVDW SH-222BB Adapter: 2 ID: 1
Read mode : SecureUtilize accurate stream : YesDefeat audio cache : YesMake use of C2 pointers : No
Read offset correction : 6Overread into Lead-In and Lead-Out : NoFill up missing offset samples with silence : YesDelete leading and trailing silent blocks : NoNull samples used in CRC calculations : YesUsed interface : Native Win32 interface for Win NT & 2000
Used output format : User Defined EncoderSelected bitrate : 896 kBit/sQuality : HighAdd ID3 tag : NoCommand line compressor : C:\Program Files\Exact Audio Copy\FLAC\FLAC.EXEAdditional command line options : -8 -V -T "TITLE=%title%" -T "ARTIST=%artist%" -T "ALBUMARTIST=%albumartist%" -T "ALBUM=%albumtitle%" -T "DATE=%year%" -T "TRACKNUMBER=%tracknr%" -T "TRACKTOTAL=%numtracks%" -T "GENRE=%genre%" -T "COMMENT=%comment%" -T "PERFORMER=%albuminterpret%" -T "COMPOSER=%composer%" %source% -o %dest%
TOC of the extracted CD
Track | Start | Length | Start sector | End sector --------------------------------------------------------- 1 | 0:00.00 | 10:25.21 | 0 | 46895 2 | 10:25.21 | 12:51.15 | 46896 | 104735 3 | 23:16.36 | 7:36.62 | 104736 | 138997 4 | 30:53.23 | 2:59.60 | 138998 | 152482 5 | 33:53.08 | 2:49.07 | 152483 | 165164 6 | 36:42.15 | 4:32.62 | 165165 | 185626 7 | 41:15.02 | 3:29.34 | 185627 | 201335 8 | 44:44.36 | 3:58.20 | 201336 | 219205 9 | 48:42.56 | 2:00.00 | 219206 | 228205 10 | 50:42.56 | 1:51.30 | 228206 | 236560 11 | 52:34.11 | 3:03.22 | 236561 | 250307 12 | 55:37.33 | 5:38.39 | 250308 | 275696 13 | 61:15.72 | 1:50.05 | 275697 | 283951 14 | 63:06.02 | 4:22.45 | 283952 | 303646
Range status and errors
Selected range
Filename G:\Ripped general\[8064] Pfitzner – Cello Concertos – Alban Gerhardt (Romantic Cello Concerto – 4)\Pfitzner - Cello Concertos - Alban Gerhardt (Romantic Cello Concerto – 4).wav
Peak level 100.0 % Extraction speed 6.6 X Range quality 100.0 % Test CRC CF179077 Copy CRC CF179077 Copy OK
No errors occurred
AccurateRip summary
Track 1 not present in databaseTrack 2 not present in databaseTrack 3 not present in databaseTrack 4 not present in databaseTrack 5 not present in databaseTrack 6 not present in databaseTrack 7 not present in databaseTrack 8 not present in databaseTrack 9 not present in databaseTrack 10 not present in databaseTrack 11 not present in databaseTrack 12 not present in databaseTrack 13 not present in databaseTrack 14 not present in database
None of the tracks are present in the AccurateRip database
End of status report
==== Log checksum EC999BCF5115243C8746320D970A6A8EC13077E87936ADEA97A2A35909235055 ====

Содержание индексной карты (.CUE)

REM GENRE ClassicalREM DATE 2012REM DISCID E30FD00EREM COMMENT "ExactAudioCopy v1.0b3"CATALOG 0034571179063PERFORMER "Alban Gerhardt & Sebastian Weigle"TITLE "Pfitzner – Cello Concertos – Alban Gerhardt"FILE "Pfitzner – Cello Concertos – Alban Gerhardt.flac" WAVE TRACK 01 AUDIO TITLE "Cello Concerto in A minor, Op. posth. (1888) - I. Andante molto sostenuto - Allegro" PERFORMER "Alban Gerhardt & Sebastian Weigle" ISRC GBAJY1490601 INDEX 01 00:00:00 TRACK 02 AUDIO TITLE "Cello Concerto in A minor, Op. posth. (1888) - II. Adagio molto tranquillo" PERFORMER "Alban Gerhardt & Sebastian Weigle" ISRC GBAJY1490602 INDEX 01 10:25:21 TRACK 03 AUDIO TITLE "Cello Concerto in A minor, Op. 52 (1943) - I. Ruhig" PERFORMER "Alban Gerhardt & Sebastian Weigle" ISRC GBAJY1490603 INDEX 01 23:16:36 TRACK 04 AUDIO TITLE "Cello Concerto in A minor, Op. 52 (1943) - II. Nicht zu schnell" PERFORMER "Alban Gerhardt & Sebastian Weigle" ISRC GBAJY1490604 INDEX 01 30:53:23 TRACK 05 AUDIO TITLE "Cello Concerto in A minor, Op. 52 (1943) - III. Feierlich" PERFORMER "Alban Gerhardt & Sebastian Weigle" ISRC GBAJY1490605 INDEX 01 33:53:08 TRACK 06 AUDIO TITLE "Cello Concerto in A minor, Op. 52 (1943) - IV. Allegretto" PERFORMER "Alban Gerhardt & Sebastian Weigle" ISRC GBAJY1490606 INDEX 01 36:42:15 TRACK 07 AUDIO TITLE "Cello Concerto in G major, Op. 42 (1935) - Ziemlich ruhig, schwebend -" PERFORMER "Alban Gerhardt & Sebastian Weigle" ISRC GBAJY1490607 INDEX 01 41:15:02 TRACK 08 AUDIO TITLE "Cello Concerto in G major, Op. 42 (1935) - Sehr langsam - Beschleunigt - Allegro -" PERFORMER "Alban Gerhardt & Sebastian Weigle" ISRC GBAJY1490607 INDEX 01 44:44:36 TRACK 09 AUDIO TITLE "Cello Concerto in G major, Op. 42 (1935) - Ruhiges Anfangstempo -" PERFORMER "Alban Gerhardt & Sebastian Weigle" ISRC GBAJY1490609 INDEX 01 48:42:56 TRACK 10 AUDIO TITLE "Cello Concerto in G major, Op. 42 (1935) - A tempo -" PERFORMER "Alban Gerhardt & Sebastian Weigle" ISRC GBAJY1490610 INDEX 01 50:42:56 TRACK 11 AUDIO TITLE "Cello Concerto in G major, Op. 42 (1935) - Langsamer a tempo" PERFORMER "Alban Gerhardt & Sebastian Weigle" ISRC GBAJY1490611 INDEX 01 52:34:11 TRACK 12 AUDIO TITLE "Duo for violin, cello & small orchestra, Op. 43 (1937) - I. Allegro moderato -" PERFORMER "Alban Gerhardt & Sebastian Weigle" ISRC GBAJY1490612 INDEX 01 55:37:33 TRACK 13 AUDIO TITLE "Duo for violin, cello & small orchestra, Op. 43 (1937) - II. Moderato -" PERFORMER "Alban Gerhardt & Sebastian Weigle" ISRC GBAJY1490612 INDEX 01 61:15:72 TRACK 14 AUDIO TITLE "Duo for violin, cello & small orchestra, Op. 43 (1937) - III. Ganze Takte" PERFORMER "Alban Gerhardt & Sebastian Weigle" ISRC GBAJY1490614 INDEX 01 63:06:02

Вариант индексной карты (.CUE) с выставленными зазорами

REM GENRE ClassicalREM DATE 2012REM DISCID E30FD00EREM COMMENT "ExactAudioCopy v1.0b3"CATALOG 0034571179063PERFORMER "Alban Gerhardt & Sebastian Weigle"TITLE "Pfitzner – Cello Concertos – Alban Gerhardt"FILE "Pfitzner – Cello Concertos – Alban Gerhardt.flac" WAVE TRACK 01 AUDIO TITLE "Cello Concerto in A minor, Op. posth. (1888) - I. Andante molto sostenuto - Allegro" PERFORMER "Alban Gerhardt & Sebastian Weigle" ISRC GBAJY1490601 INDEX 01 00:00:00 TRACK 02 AUDIO TITLE "Cello Concerto in A minor, Op. posth. (1888) - II. Adagio molto tranquillo" PERFORMER "Alban Gerhardt & Sebastian Weigle" ISRC GBAJY1490602 INDEX 00 10:23:09 INDEX 01 10:25:21 TRACK 03 AUDIO TITLE "Cello Concerto in A minor, Op. 52 (1943) - I. Ruhig" PERFORMER "Alban Gerhardt & Sebastian Weigle" ISRC GBAJY1490603 INDEX 00 23:12:65 INDEX 01 23:16:36 TRACK 04 AUDIO TITLE "Cello Concerto in A minor, Op. 52 (1943) - II. Nicht zu schnell" PERFORMER "Alban Gerhardt & Sebastian Weigle" ISRC GBAJY1490604 INDEX 00 30:51:35 INDEX 01 30:53:23 TRACK 05 AUDIO TITLE "Cello Concerto in A minor, Op. 52 (1943) - III. Feierlich" PERFORMER "Alban Gerhardt & Sebastian Weigle" ISRC GBAJY1490605 INDEX 00 33:51:25 INDEX 01 33:53:08 TRACK 06 AUDIO TITLE "Cello Concerto in A minor, Op. 52 (1943) - IV. Allegretto" PERFORMER "Alban Gerhardt & Sebastian Weigle" ISRC GBAJY1490606 INDEX 01 36:42:15 TRACK 07 AUDIO TITLE "Cello Concerto in G major, Op. 42 (1935) - Ziemlich ruhig, schwebend -" PERFORMER "Alban Gerhardt & Sebastian Weigle" ISRC GBAJY1490607 INDEX 00 41:09:08 INDEX 01 41:15:02 TRACK 08 AUDIO TITLE "Cello Concerto in G major, Op. 42 (1935) - Sehr langsam - Beschleunigt - Allegro -" PERFORMER "Alban Gerhardt & Sebastian Weigle" ISRC GBAJY1490607 INDEX 01 44:49:24 TRACK 09 AUDIO TITLE "Cello Concerto in G major, Op. 42 (1935) - Ruhiges Anfangstempo -" PERFORMER "Alban Gerhardt & Sebastian Weigle" ISRC GBAJY1490609 INDEX 01 48:42:56 TRACK 10 AUDIO TITLE "Cello Concerto in G major, Op. 42 (1935) - A tempo -" PERFORMER "Alban Gerhardt & Sebastian Weigle" ISRC GBAJY1490610 INDEX 01 50:43:05 TRACK 11 AUDIO TITLE "Cello Concerto in G major, Op. 42 (1935) - Langsamer a tempo" PERFORMER "Alban Gerhardt & Sebastian Weigle" ISRC GBAJY1490611 INDEX 01 52:34:36 TRACK 12 AUDIO TITLE "Duo for violin, cello & small orchestra, Op. 43 (1937) - I. Allegro moderato -" PERFORMER "Alban Gerhardt & Sebastian Weigle" ISRC GBAJY1490612 INDEX 00 55:33:64 INDEX 01 55:37:33 TRACK 13 AUDIO TITLE "Duo for violin, cello & small orchestra, Op. 43 (1937) - II. Moderato -" PERFORMER "Alban Gerhardt & Sebastian Weigle" ISRC GBAJY1490612 INDEX 01 61:15:72 TRACK 14 AUDIO TITLE "Duo for violin, cello & small orchestra, Op. 43 (1937) - III. Ganze Takte" PERFORMER "Alban Gerhardt & Sebastian Weigle" ISRC GBAJY1490614 INDEX 01 63:06:02
[teatrix.ru].t9933.torrent 
Торрент: Зарегистрирован [ 2015-10-25 20:37 ] · 4CC9AF1BD001F75A13CE078596E5442A7F1303C5

Скачать .torrent

Скачать

12 KB

Статус: проверено
Скачан: 0 раз
Размер: 274 MB
terms.php



Быстрый ответ

Имя:

      
Для отправки сообщений необходимо включить JavaScript
Показать сообщения:    

Текущее время: 20-Янв 15:00

Часовой пояс: UTC + 3


Вы можете начинать темы
Вы можете отвечать на сообщения
Вы не можете редактировать свои сообщения
Вы не можете удалять свои сообщения
Вы не можете голосовать в опросах
Вы не можете прикреплять файлы к сообщениям
Вы можете скачивать файлы