(Classical) Рахманинов - Концерт для фортепиано с оркестром №1, Рапсодия на тему Паганини (Плетнев - фортепиано; Royal Liverpool Philharmonic Orchestra / Libor Pesek) 1987 - 2003, FLAC (image+.cue) lossless


Статистика раздачи [Обновить пиров]
Размер:  163 MB   |    Зарегистрирован:  1 год 1 месяц   |    Скачан:  0 раз

Полного источника не было: Никогда

Личеров:  1  [  0 KB/s  ]   Подробная статистика пиров
 
   
 
 
 

[Цитировать]

Сергей Рахманинов -
Концерт для фортепиано с оркестром №1,Рапсодия на тему Паганини
(Плетнев - фортепиано; Royal Liverpool Philharmonic Orchestra/Libor Pešek)
Сергей Рахманинов (1873-1943) Жанр: Classical
Страна-производитель диска: Россия
Год издания диска: 2003
Издатель (лейбл): Международная Книга Музыка
Номер по каталогу: МКМ 104
Дата записи: 1987
Аудиокодек: FLAC
Тип рипа: image+.cue
Битрейт аудио: lossless
Продолжительность: 0:50:19
Источник: JVA
Наличие сканов в содержимом раздачи: да
Треклист:
Концерт для фортепиано с оркестром №1 - фа # минор, Соч.1
01. I. Vivace (12:27)
02. II. Andante (06:27)
03. III. Allegro vivace (08:09)
Рапсодия на тему Паганини, Соч.43
04. Introduction (00:08)
05. Variation I (00:20)
06. Tema (00:19)
07. Variation II (00:18)
08. Variation III (00:24)
09. Variation IV (00:29)
10. Variation V (00:28)
11. Variation VI (00:580
12. Variation VII (01:01)
13. Variation VIII (00:33)
14. Variation IX (00:30)
15. Variation X (00:53)
16. Variation XI (01:23)
17. Variation XII (01:09)
18. Variation XIII (00:29)
19. Variation XIV (00:41)
20. Variation XV (01:04)
21. Variation XVI (01:33)
22. Variation XVII (01:52)
23. Variation XVIII (03:13)
24. Variation XIX (00:34)
25. Variation XX (00:37)
26. Variation XXI (00:26)
27. Variation XXII (01:50)
28. Variation XXIII (00:50)
29. Variation XXIV (01:18)
Исполнители:
Михаил Плетнев - фортепиано
Royal Liverpool Philharmonic Orchestra / Libor Pešek

Лог создания рипа

Exact Audio Copy V0.99 prebeta 5 from 4. May 2009
Отчёт EAC об извлечении, выполненном 14. июля 2014, 16:00
Sergei Rachmaninov / Piano Concerto no 1 et Rhapsodie on a theme of Paganini
Дисковод: ATAPI iHAS124 E Adapter: 0 ID: 0
Режим чтения : ДостоверностьИспользование точного потока : ДаОтключение кэша аудио : ДаИспользование указателей C2 : Нет
Коррекция смещения при чтении : 6Способность читать области Lead-in и Lead-out : НетЗаполнение пропущенных сэмплов тишиной : ДаУдаление блоков с тишиной в начале и конце : НетПри вычислениях CRC использовались нулевые сэмплы : ДаИнтерфейс : Встроенный Win32-интерфейс для Win NT/2000
Выходной формат : Пользовательский кодировщикВыбранный битрейт : 768 kBit/sКачество : ВысокийДобавление ID3-тэга : НетУтилита сжатия : C:\Program Files\Exact Audio Copy\Flac\flac.exeДополнительные параметры : -6 -V -T "ARTIST=%a" -T "TITLE=%t" -T "ALBUM=%g" -T "DATE=%y" -T "TRACKNUMBER=%n" -T "GENRE=%m" -T "COMMENT=%e" %s -o %d
TOC извлечённого CD
Трек | Старт | Длительность | Начальный сектор | Конечный сектор --------------------------------------------------------------------- 1 | 0:00.00 | 12:27.57 | 0 | 56081 2 | 12:27.57 | 6:27.25 | 56082 | 85131 3 | 18:55.07 | 8:09.38 | 85132 | 121844 4 | 27:04.45 | 0:08.47 | 121845 | 122491 5 | 27:13.17 | 0:20.03 | 122492 | 123994 6 | 27:33.20 | 0:19.10 | 123995 | 125429 7 | 27:52.30 | 0:18.57 | 125430 | 126836 8 | 28:11.12 | 0:24.50 | 126837 | 128686 9 | 28:35.62 | 0:29.10 | 128687 | 130871 10 | 29:04.72 | 0:28.53 | 130872 | 133024 11 | 29:33.50 | 0:58.50 | 133025 | 137424 12 | 30:32.25 | 1:01.12 | 137425 | 142011 13 | 31:33.37 | 0:33.03 | 142012 | 144489 14 | 32:06.40 | 0:30.62 | 144490 | 146801 15 | 32:37.27 | 0:53.23 | 146802 | 150799 16 | 33:30.50 | 1:23.20 | 150800 | 157044 17 | 34:53.70 | 1:09.02 | 157045 | 162221 18 | 36:02.72 | 0:29.43 | 162222 | 164439 19 | 36:32.40 | 0:41.60 | 164440 | 167574 20 | 37:14.25 | 1:04.52 | 167575 | 172426 21 | 38:19.02 | 1:33.55 | 172427 | 179456 22 | 39:52.57 | 1:52.73 | 179457 | 187929 23 | 41:45.55 | 3:13.37 | 187930 | 202441 24 | 44:59.17 | 0:34.30 | 202442 | 205021 25 | 45:33.47 | 0:37.20 | 205022 | 207816 26 | 46:10.67 | 0:26.63 | 207817 | 209829 27 | 46:37.55 | 1:50.70 | 209830 | 218149 28 | 48:28.50 | 0:50.30 | 218150 | 221929 29 | 49:19.05 | 1:18.65 | 221930 | 227844
Характеристики диапазона извлечения и сообщения об ошибках
Выбранный диапазон
Имя файла C:\EAC\Mikhail Pletnev - Sergei Rachmaninov Piano Concerto no.1\Mikhail Pletnev - Sergei Rachmaninov Piano Concerto no.1.wav
Пиковый уровень 100.0 % Качество диапазона 100.0 % CRC копии 698444B9 Копирование... OK
Ошибок не произошло
AccurateRip: сводка
Трек 1 точность не определена (достоверность 8) [9EF7C85E], AccurateRip вернул [406B4E54]Трек 2 точность не определена (достоверность 9) [A55CFD40], AccurateRip вернул [7BBC6DE3]Трек 3 точность не определена (достоверность 9) [5BBB8BF2], AccurateRip вернул [7B1937B0]Трек 4 точность не определена (достоверность 9) [73506E3B], AccurateRip вернул [4F0AB576]Трек 5 точность не определена (достоверность 9) [5E7BBBB5], AccurateRip вернул [27C0E7D0]Трек 6 точность не определена (достоверность 9) [790F5A07], AccurateRip вернул [0B54C2B6]Трек 7 точность не определена (достоверность 9) [5D994D7C], AccurateRip вернул [4B9AE7B8]Трек 8 точность не определена (достоверность 9) [67378C0E], AccurateRip вернул [F2E27703]Трек 9 точность не определена (достоверность 9) [10F5E381], AccurateRip вернул [3C7563D3]Трек 10 точность не определена (достоверность 9) [EFAFAADB], AccurateRip вернул [959AA495]Трек 11 точность не определена (достоверность 9) [F7A5B705], AccurateRip вернул [99BF22BF]Трек 12 точность не определена (достоверность 9) [871AA6F9], AccurateRip вернул [60BECCCA]Трек 13 точность не определена (достоверность 9) [0FF5CF6E], AccurateRip вернул [1FF1DDCE]Трек 14 точность не определена (достоверность 9) [EA77D468], AccurateRip вернул [EF1EF3EB]Трек 15 точность не определена (достоверность 9) [8A07F567], AccurateRip вернул [EF35591C]Трек 16 точность не определена (достоверность 9) [20316F34], AccurateRip вернул [1BA1F7B4]Трек 17 точность не определена (достоверность 9) [2A924EA3], AccurateRip вернул [972D958B]Трек 18 точность не определена (достоверность 8) [7C213E3E], AccurateRip вернул [735AD887]Трек 19 точность не определена (достоверность 9) [270ECE4E], AccurateRip вернул [D524159C]Трек 20 точность не определена (достоверность 9) [BA4BA452], AccurateRip вернул [7197D1B3]Трек 21 точность не определена (достоверность 9) [87D55249], AccurateRip вернул [4317990C]Трек 22 точность не определена (достоверность 8) [4BFB54A4], AccurateRip вернул [17312D38]Трек 23 точность не определена (достоверность 9) [2C2A26E8], AccurateRip вернул [203CFF1F]Трек 24 точность не определена (достоверность 9) [774DE3A5], AccurateRip вернул [4A8D826D]Трек 25 точность не определена (достоверность 9) [152EF1B8], AccurateRip вернул [A5CA3013]Трек 26 точность не определена (достоверность 9) [5F80433C], AccurateRip вернул [668B5952]Трек 27 точность не определена (достоверность 9) [13ACDEFD], AccurateRip вернул [D271A3C5]Трек 28 точность не определена (достоверность 9) [579E9257], AccurateRip вернул [B0F40C5E]Трек 29 точность не определена (достоверность 9) [23616EDE], AccurateRip вернул [A343B7E8]
Ни один трек не прошёл проверки на точностьВ вашей базе может быть иной вариант штамповки диска
Конец отчёта

Лог проверки качества

Скриншот спектра частот

[teatrix.ru].t9935.torrent 
Торрент: Зарегистрирован [ 2015-10-25 20:37 ] · B147D60B92CEE2FC373B7986298ADECDC1AC6707

Скачать .torrent

Скачать

14 KB

Статус: проверено
Скачан: 0 раз
Размер: 163 MB
terms.php



Быстрый ответ

Имя:

      
Для отправки сообщений необходимо включить JavaScript
Показать сообщения:    

Текущее время: 07-Дек 17:28

Часовой пояс: UTC + 3


Вы можете начинать темы
Вы можете отвечать на сообщения
Вы не можете редактировать свои сообщения
Вы не можете удалять свои сообщения
Вы не можете голосовать в опросах
Вы не можете прикреплять файлы к сообщениям
Вы можете скачивать файлы