(Classical, 20th century) Einar Englund - Piano Concertos 1 & 2; Epinikia - Matti Raekallio, Tampere Philharmonic Orchestra, Eri Klas - 2003, FLAC (image+.cue) lossless


Статистика раздачи [Обновить пиров]
Размер:  213 MB   |    Зарегистрирован:  1 год 1 месяц   |    Скачан:  1 раз

Полного источника не было: 4 месяца

Личеров:  2  [  0 KB/s  ]   Подробная статистика пиров
 
   
 
 
 

[Цитировать]

Einar Englund - Piano Concertos 1 & 2; Epinikia - Matti Raekallio, Tampere Philharmonic Orchestra, Eri Klas
Жанр: Classical, 20th century
Страна-производитель диска: Finland
Год издания диска: 2003
Издатель (лейбл): Ondine
Номер по каталогу: ODE 1015-2
Дата записи: 2002
Аудиокодек: FLAC
Тип рипа: image+.cue
Битрейт аудио: lossless
Продолжительность: 53:28
Источник: собственный рип
Наличие сканов в содержимом раздачи: да
Треклист:
Einar Englund (1916-1999)
[1]-[3] Concerto for Piano and Orchestra No.1 (1955)
[4]-[6] Concerto for Piano and Orchestra No.2 (1974)
[7] Epinikia (1947)
Исполнители:
Matti Raekallio piano
Tampere Philharmonic Orchestra
Eri Klas
conductor

Лог создания рипа

Exact Audio Copy V1.0 beta 3 from 29. August 2011
EAC extraction logfile from 16. July 2014, 12:52
Matti Raekallio, Tampere Philharmonic Orchestra, Eri Klas / Englund - Piano concertos 1 & 2; Epinikia
Used drive : HL-DT-STDVDRRW GWA-4164B Adapter: 5 ID: 0
Read mode : SecureUtilize accurate stream : YesDefeat audio cache : YesMake use of C2 pointers : No
Read offset correction : 102Overread into Lead-In and Lead-Out : NoFill up missing offset samples with silence : YesDelete leading and trailing silent blocks : NoNull samples used in CRC calculations : YesUsed interface : Native Win32 interface for Win NT & 2000
Used output format : User Defined EncoderSelected bitrate : 896 kBit/sQuality : HighAdd ID3 tag : NoCommand line compressor : C:\Program Files\Exact Audio Copy\FLAC\FLAC.EXEAdditional command line options : -V -8 %source%
TOC of the extracted CD
Track | Start | Length | Start sector | End sector --------------------------------------------------------- 1 | 0:00.00 | 9:18.39 | 0 | 41888 2 | 9:18.39 | 6:20.07 | 41889 | 70395 3 | 15:38.46 | 6:15.01 | 70396 | 98521 4 | 21:53.47 | 9:16.34 | 98522 | 140255 5 | 31:10.06 | 7:07.29 | 140256 | 172309 6 | 38:17.35 | 7:33.48 | 172310 | 206332 7 | 45:51.08 | 7:36.68 | 206333 | 240600
Range status and errors
Selected range
Filename D:\temp\Music\Englund - Piano concertos 1 & 2; Epinikia\Englund - Piano concertos 1 & 2; Epinikia.wav
Peak level 94.4 % Extraction speed 2.2 X Range quality 99.9 % Test CRC 14555C95 Copy CRC 14555C95 Copy OK
No errors occurred
AccurateRip summary
Track 1 accurately ripped (confidence 1) [B2A0B0F7] (AR v2)Track 2 accurately ripped (confidence 1) [2F84238D] (AR v2)Track 3 accurately ripped (confidence 1) [4DBAE2FF] (AR v2)Track 4 accurately ripped (confidence 1) [D6F505F7] (AR v2)Track 5 accurately ripped (confidence 1) [C4A58BBD] (AR v2)Track 6 accurately ripped (confidence 1) [DA6CB309] (AR v2)Track 7 accurately ripped (confidence 1) [319F922E] (AR v2)
All tracks accurately ripped
End of status report
==== Log checksum 9B1334E91CC22A9E7EEDE1C6C20DEFFFCE1B48D3913DAEE890781A6C050545BB ====
[teatrix.ru].t9936.torrent 
Торрент: Зарегистрирован [ 2015-10-25 20:37 ] · 574493F8952120D1859EBE47763766F0322B2111

Скачать .torrent

Скачать

35 KB

Статус: проверено
Скачан: 1 раз
Размер: 213 MB
terms.php



Быстрый ответ

Имя:

      
Для отправки сообщений необходимо включить JavaScript
Показать сообщения:    

Текущее время: 08-Дек 01:18

Часовой пояс: UTC + 3


Вы можете начинать темы
Вы можете отвечать на сообщения
Вы не можете редактировать свои сообщения
Вы не можете удалять свои сообщения
Вы не можете голосовать в опросах
Вы не можете прикреплять файлы к сообщениям
Вы можете скачивать файлы