(Classical) Wolfgang Amadeus Mozart - Clarinet Concerto; Kegelstatt Trio; Allegro in B flat major - Martin Fröst (Frost), The Deutsche Kammerphilharmonie Bremen, Tamestit, Andsnes, Jansen, Бровцын, Рысанов, Thedeen - 2013, FLAC (image+.cue) loss


Статистика раздачи [Обновить пиров]
Размер:  231 MB   |    Зарегистрирован:  1 год 1 месяц   |    Скачан:  1 раз

Полного источника не было: 4 месяца 25 дней

Личеров:  1  [  0 KB/s  ]   Подробная статистика пиров
 
   
 
 
 

[Цитировать]

Wolfgang Amadeus Mozart - Clarinet Concerto; Kegelstatt Trio; Allegro in B flat major - Martin Fröst, The Deutsche Kammerphilharmonie Bremen, Tamestit, Andsnes, Jansen, Brovtsyn, Rysanov, Thedéen
Жанр: Classical
Страна-производитель диска: Sweden
Год издания диска: 2013
Издатель (лейбл): BIS
Номер по каталогу: BIS-SACD-1893
Дата записи: 2010, 2012, 2013
Аудиокодек: FLAC
Тип рипа: image+.cue
Битрейт аудио: lossless
Продолжительность: 53:43
Источник: собственный рип
Наличие сканов в содержимом раздачи: да
Треклист:
Wolfgang Amadeus Mozart (1756-1791)
[1]-[3] Concerto in A major for Clarinet and Orchestra, K 622 (1791)
The Deutsche Kammerphilharmonie Bremen
[4]-[6] Trio for Clarinet, Viola and Piano, ‘Kegelstatt’, K 498 (1786)
Antoine Tamestit viola
Leif Ove Andsnes piano
[7] Allegro for Clarinet and String Quartet in B flat major, K Anh. 91 (516c) (1787)
Fragment completed by Robert Levin
Janine Jansen & Boris Brovtsyn violins
Maxim Rysanov viola
Torleif Thedéen cello
Исполнители:
Martin Fröst basset clarinet and direction [1–3] / clarinet

Лог создания рипа

Exact Audio Copy V1.0 beta 3 from 29. August 2011
EAC extraction logfile from 15. July 2014, 18:06
Martin Fröst / Mozart - Clarinet Concerto; Kegelstatt Trio
Used drive : HL-DT-STDVDRRW GWA-4164B Adapter: 5 ID: 0
Read mode : SecureUtilize accurate stream : YesDefeat audio cache : YesMake use of C2 pointers : No
Read offset correction : 102Overread into Lead-In and Lead-Out : NoFill up missing offset samples with silence : YesDelete leading and trailing silent blocks : NoNull samples used in CRC calculations : YesUsed interface : Native Win32 interface for Win NT & 2000
Used output format : User Defined EncoderSelected bitrate : 896 kBit/sQuality : HighAdd ID3 tag : NoCommand line compressor : C:\Program Files\Exact Audio Copy\FLAC\FLAC.EXEAdditional command line options : -V -8 %source%
TOC of the extracted CD
Track | Start | Length | Start sector | End sector --------------------------------------------------------- 1 | 0:00.00 | 12:20.42 | 0 | 55541 2 | 12:20.42 | 6:40.57 | 55542 | 85598 3 | 19:01.24 | 8:05.46 | 85599 | 122019 4 | 27:06.70 | 5:46.28 | 122020 | 147997 5 | 32:53.23 | 5:05.33 | 147998 | 170905 6 | 37:58.56 | 8:04.08 | 170906 | 207213 7 | 46:02.64 | 7:40.12 | 207214 | 241725
Range status and errors
Selected range
Filename D:\temp\Music\BIS-SACD-1893 - Mozart - Clarinet Concerto; Kegelstatt Trio\Mozart - Clarinet Concerto; Kegelstatt Trio.wav
Peak level 99.8 % Extraction speed 2.9 X Range quality 100.0 % Test CRC 0A4BB90D Copy CRC 0A4BB90D Copy OK
No errors occurred
AccurateRip summary
Track 1 accurately ripped (confidence 3) [F6211F80] (AR v2)Track 2 accurately ripped (confidence 3) [217B3EE1] (AR v2)Track 3 accurately ripped (confidence 2) [9852EE19] (AR v2)Track 4 accurately ripped (confidence 2) [9DA08FA8] (AR v2)Track 5 accurately ripped (confidence 2) [3D5A06DD] (AR v2)Track 6 accurately ripped (confidence 2) [5B5094DC] (AR v2)Track 7 accurately ripped (confidence 2) [88BE7FB5] (AR v2)
All tracks accurately ripped
End of status report
==== Log checksum 127FCBE6E820F512402C5CBEEFCD09901EFDE7E15627C9D33D663F5CBBC79AB1 ====
[teatrix.ru].t9937.torrent 
Торрент: Зарегистрирован [ 2015-10-25 20:37 ] · 2FEF0E891E27E542E11407A10841D0FCB6FE6170

Скачать .torrent

Скачать

37 KB

Статус: проверено
Скачан: 1 раз
Размер: 231 MB
terms.php



Быстрый ответ

Имя:

      
Для отправки сообщений необходимо включить JavaScript
Показать сообщения:    

Текущее время: 08-Дек 19:05

Часовой пояс: UTC + 3


Вы можете начинать темы
Вы можете отвечать на сообщения
Вы не можете редактировать свои сообщения
Вы не можете удалять свои сообщения
Вы не можете голосовать в опросах
Вы не можете прикреплять файлы к сообщениям
Вы можете скачивать файлы