(Classical, contemporary) Sebastian Fagerlund - Clarinet Concerto; Partita; Isola - Christoffer Sundqvist, Gothenburg Symphony Orchestra, Дмитрий Слободенюк (Dima Slobodeniouk) - 2011, FLAC (image+.cue) lossless


Статистика раздачи [Обновить пиров]
Размер:  214 MB   |    Зарегистрирован:  1 год 1 месяц   |    Скачан:  0 раз

Полного источника не было: Никогда

Личеров:  1  [  0 KB/s  ]   Подробная статистика пиров
 
   
 
 
 

[Цитировать]

Sebastian Fagerlund - Clarinet Concerto; Partita; Isola - Christoffer Sundqvist, Gothenburg Symphony Orchestra, Дмитрий Слободенюк
Жанр: Classical, contemporary
Страна-производитель диска: Sweden
Год издания диска: 2011
Издатель (лейбл): BIS
Номер по каталогу: BIS-SACD-1707
Дата записи: 2008, 2010
Аудиокодек: FLAC
Тип рипа: image+.cue
Битрейт аудио: lossless
Продолжительность: 58:36
Источник: собственный рип
Наличие сканов в содержимом раздачи: да
Треклист:
Sebastian Fagerlund (b.1972)
[1]-[4] Clarinet Concerto (2005–06)
[5]-[7] Partita for string orchestra and percussion (2007–09)
[8]-[9] Isola for symphony orchestra (2007)
Исполнители:
Christoffer Sundqvist clarinet [1–4]
Gothenburg Symphony Orchestra
Dima Slobodeniouk
conductor

Лог создания рипа

Exact Audio Copy V1.0 beta 3 from 29. August 2011
EAC extraction logfile from 26. April 2014, 18:36
Gothenburg SO, Dima Slobodeniouk / Fagerlund - Clarinet Concerto; Partita; Isola
Used drive : HL-DT-STDVDRAM GSA-4083N Adapter: 1 ID: 0
Read mode : SecureUtilize accurate stream : YesDefeat audio cache : YesMake use of C2 pointers : No
Read offset correction : 667Overread into Lead-In and Lead-Out : NoFill up missing offset samples with silence : YesDelete leading and trailing silent blocks : NoNull samples used in CRC calculations : YesUsed interface : Native Win32 interface for Win NT & 2000
Used output format : User Defined EncoderSelected bitrate : 896 kBit/sQuality : HighAdd ID3 tag : NoCommand line compressor : C:\Program Files\Exact Audio Copy\Flac\flac.exeAdditional command line options : -V -8 %source%
TOC of the extracted CD
Track | Start | Length | Start sector | End sector --------------------------------------------------------- 1 | 0:00.00 | 2:19.56 | 0 | 10480 2 | 2:19.56 | 5:24.31 | 10481 | 34811 3 | 7:44.12 | 10:57.35 | 34812 | 84121 4 | 18:41.47 | 4:57.00 | 84122 | 106396 5 | 23:38.47 | 4:01.19 | 106397 | 124490 6 | 27:39.66 | 6:42.51 | 124491 | 154691 7 | 34:22.42 | 7:49.42 | 154692 | 189908 8 | 42:12.09 | 9:50.22 | 189909 | 234180 9 | 52:02.31 | 6:34.09 | 234181 | 263739
Range status and errors
Selected range
Filename J:\New Music\BIS-SACD-1707 - Fagerlund - Clarinet Concerto; Partita; Isola\Fagerlund - Clarinet Concerto; Partita; Isola.wav
Peak level 100.0 % Extraction speed 2.7 X Range quality 99.9 % Test CRC 68D8BFD6 Copy CRC 68D8BFD6 Copy OK
No errors occurred
AccurateRip summary
Track 1 accurately ripped (confidence 1) [E8D66FE4] (AR v2)Track 2 accurately ripped (confidence 1) [7E6FE100] (AR v2)Track 3 accurately ripped (confidence 1) [E88B49C3] (AR v2)Track 4 accurately ripped (confidence 1) [8310FED8] (AR v2)Track 5 accurately ripped (confidence 1) [0E671038] (AR v2)Track 6 accurately ripped (confidence 1) [0341B19E] (AR v2)Track 7 accurately ripped (confidence 1) [C78D0F04] (AR v2)Track 8 accurately ripped (confidence 1) [65ABF8AE] (AR v2)Track 9 accurately ripped (confidence 1) [A59D1951] (AR v2)
All tracks accurately ripped
End of status report
==== Log checksum D89E31EEAF73BB7397FBEB97DBFBBD76F1D2080EC120D98115A9D335BD1261DE ====
[teatrix.ru].t9938.torrent 
Торрент: Зарегистрирован [ 2015-10-25 20:37 ] · 05EA67DCEE25169108A96208A35095DE9DC4784F

Скачать .torrent

Скачать

35 KB

Статус: проверено
Скачан: 0 раз
Размер: 214 MB
terms.php



Быстрый ответ

Имя:

      
Для отправки сообщений необходимо включить JavaScript
Показать сообщения:    

Текущее время: 10-Дек 19:39

Часовой пояс: UTC + 3


Вы можете начинать темы
Вы можете отвечать на сообщения
Вы не можете редактировать свои сообщения
Вы не можете удалять свои сообщения
Вы не можете голосовать в опросах
Вы не можете прикреплять файлы к сообщениям
Вы можете скачивать файлы