(Classical) Zandonai - Violin Concerto Romantico * Quadri di Segantini (Orchestra Haydn di Bolzano e Trento, Ciacci-Grazioli) - 2005, APE (image+.cue) lossless


Статистика раздачи [Обновить пиров]
Размер:  252 MB   |    Зарегистрирован:  1 год 1 месяц   |    Скачан:  0 раз

Полного источника не было: Никогда

Личеров:  2  [  0 KB/s  ]   Подробная статистика пиров
 
   
 
 
 

[Цитировать]

Riccardo Zandonai (1883-1944) - Violin Concerto Romantico * Quadri di Segantini
Жанр: Classical
Страна-производитель диска: Germany
Год издания диска: 2005
Издатель (лейбл): CPO
Номер по каталогу: 777 107-2
Дата записи: 2000-2003
Аудиокодек: APE
Тип рипа: image+.cue
Битрейт аудио: lossless
Продолжительность: 57'06
Источник: собственный рип
Наличие сканов в содержимом раздачи: да
Треклист/Исполнители:Concerto romantico per violino e orchestra:
1. Allegro con vivacità ed energia
2. Adagio
3. Finale. Allegro deciso
Stefano Zanchetta, violin
Orchestra Haydn di Bolzano e Trento
Maurizio Dini CiacciQuadri di Segantini:
4. L'Aratura
5. Idilio
6. Ritorno al paese natio
7. Meriggio
Orchestra Haydn di Bolzano e Trento
Giuseppe Grazioli

Лог создания рипа

Exact Audio Copy V1.0 beta 3 from 29. August 2011
EAC extraction logfile from 11. July 2014, 18:06
Zandonai / Concert Romantico * Quadri da Segantini, Ciacci-Graziali
Used drive : TSSTcorpCDDVDW SE-208AB Adapter: 1 ID: 0
Read mode : SecureUtilize accurate stream : YesDefeat audio cache : YesMake use of C2 pointers : No
Read offset correction : 6Overread into Lead-In and Lead-Out : NoFill up missing offset samples with silence : YesDelete leading and trailing silent blocks : NoNull samples used in CRC calculations : YesUsed interface : Native Win32 interface for Win NT & 2000
Used output format : Monkey's Audio Lossless EncoderSelected bitrate : High Lossless CompressionQuality : HighAdd ID3 tag : NoCommand line compressor : C:\Program Files (x86)\Exact Audio Copy\MAC\MAC.exe
TOC of the extracted CD
Track | Start | Length | Start sector | End sector --------------------------------------------------------- 1 | 0:00.00 | 7:57.00 | 0 | 35774 2 | 7:57.00 | 9:43.48 | 35775 | 79547 3 | 17:40.48 | 12:30.47 | 79548 | 135844 4 | 30:11.20 | 10:13.03 | 135845 | 181822 5 | 40:24.23 | 6:39.15 | 181823 | 211762 6 | 47:03.38 | 5:44.64 | 211763 | 237626 7 | 52:48.27 | 4:17.48 | 237627 | 256949
Range status and errors
Selected range
Filename D:\EAC\Zandonai - Concert Romantico x Quadri da Segantini, Ciacci-Graziali.wav
Peak level 100.0 % Extraction speed 1.9 X Range quality 100.0 % Test CRC 6BC24379 Copy CRC 6BC24379 Copy OK
No errors occurred
AccurateRip summary
Track 1 accurately ripped (confidence 2) [59CA16B9] (AR v2)Track 2 accurately ripped (confidence 2) [3C7A8008] (AR v2)Track 3 accurately ripped (confidence 2) [A700319E] (AR v2)Track 4 accurately ripped (confidence 2) [C2C22450] (AR v2)Track 5 accurately ripped (confidence 2) [46E42582] (AR v2)Track 6 accurately ripped (confidence 2) [88841706] (AR v2)Track 7 accurately ripped (confidence 2) [E7361FE1] (AR v2)
All tracks accurately ripped
End of status report
---- CUETools DB Plugin V2.1.3
[CTDB TOCID: KXDQPX_c4lICO5vc89B2SeFuRyw-] disk not present in database, Submit result: KXDQPX_c4lICO5vc89B2SeFuRyw- has been uploaded
==== Log checksum B864279DCABB49EBB50A6BDBA5AEF9251E7F29E99A235F104C9A72417221D35E ====

Содержание индексной карты (.CUE)

REM GENRE SymphonyREM DATE 2005REM DISCID 560D6207REM COMMENT "ExactAudioCopy v1.0b3"PERFORMER "Zandonai"TITLE "Concert Romantico * Quadri da Segantini, Ciacci-Graziali"FILE "Zandonai - Concert Romantico x Quadri da Segantini, Ciacci-Graziali.ape" WAVE TRACK 01 AUDIO TITLE "Concerto Romantico Para Violino e Orchestra - Allegro" PERFORMER "Zandonai" ISRC DEB200410701 INDEX 01 00:00:00 TRACK 02 AUDIO TITLE "Concerto Romantico Para Violino e Orchestra - Adagio" PERFORMER "Zandonai" ISRC DEB200410702 INDEX 01 07:57:00 TRACK 03 AUDIO TITLE "Concerto Romantico Para Violino e Orchestra - Finale" PERFORMER "Zandonai" ISRC DEB200410703 INDEX 01 17:40:48 TRACK 04 AUDIO TITLE "Quadri di Segantini - L'Aratura" PERFORMER "Zandonai" ISRC DEB200410703 INDEX 01 30:11:20 TRACK 05 AUDIO TITLE "Quadri di Segantini - Idilio" PERFORMER "Zandonai" ISRC DEB200410705 INDEX 01 40:24:23 TRACK 06 AUDIO TITLE "Quadri di Segantini - Ritorno al paese natio" PERFORMER "Zandonai" ISRC DEB200410706 INDEX 01 47:03:38 TRACK 07 AUDIO TITLE "Quadri di Segantini - Meriggio" PERFORMER "Zandonai" ISRC DEB200410707 INDEX 01 52:48:27
Доп. информация:
Доп. информация:
Okay, the music may be a little bit kitschy, but if you like Respighi and his school, you’ll love this stuff.
The orchestration is richly colored (lots of harp, celesta, and piquant percussion) and the tunes are catchy–and there’s nothing wrong with that.
Best known for his opera Francesca da Rimini, Riccardo Zandonai also wrote a substantial body of largely pictorial orchestral music.
Quadri di Segantini is a series of four small tone poems evocative of Italian landscapes. It dates from 1931, and as the finale clearly shows, The Pines of Rome aren’t too far away.
Concerto Romantico will charm anyone who enjoys, say, Korngold’s concerto.
It’s nicely put together formally, and Stefano Zanchetta sounds as if he’s having a terrific time playing it.
Indeed, the Haydn Orchestra of Bolzano and Trento, hardly the world’s greatest ensemble, does itself proud here under both conductors, and the sonics are full of atmosphere and dynamic impact, as they must be in music that thrives on sheer color. Juicy!
Енёы!!
[teatrix.ru].t9940.torrent 
Торрент: Зарегистрирован [ 2015-10-25 20:37 ] · A07D35D9490133FA8727711AD712CA4795EB26A8

Скачать .torrent

Скачать

21 KB

Статус: проверено
Скачан: 0 раз
Размер: 252 MB
terms.php



Быстрый ответ

Имя:

      
Для отправки сообщений необходимо включить JavaScript
Показать сообщения:    

Текущее время: 05-Дек 17:29

Часовой пояс: UTC + 3


Вы можете начинать темы
Вы можете отвечать на сообщения
Вы не можете редактировать свои сообщения
Вы не можете удалять свои сообщения
Вы не можете голосовать в опросах
Вы не можете прикреплять файлы к сообщениям
Вы можете скачивать файлы