(Classical/Cello) Anner Bylsma Collection - Cello Concertos, Duets (Vivaldi, Bach, Boccherini, Haydn, Kraft, Beethoven, Servais, Franchomme, Chopin) [Sony Music, 6 CD] - 1976-1997/2014, FLAC (tracks+.cue) lossless


Статистика раздачи [Обновить пиров]
Размер:  1.95 GB   |    Зарегистрирован:  1 год 1 месяц   |    Скачан:  1 раз

Полного источника не было: 11 дней

Личеров:  1  [  0 KB/s  ]   Подробная статистика пиров
 
   
 
 
 

[Цитировать]

Anner Bylsma - Collection: Cello Concertos & Duets
Жанр: Classical/Cello
Страна-производитель диска: EU
Год издания диска: 1976-1997/2014
Издатель (лейбл): Sony Music
Номер по каталогу: 88843010662
Дата записи: 1974-1996
Аудиокодек: FLAC
Тип рипа: tracks+.cue
Битрейт аудио: lossless
Продолжительность: 6:36:30
Источник: скачано с
сайт-источник/ник/другое: avaxhome
Наличие сканов в содержимом раздачи: да
Треклист и исполнители:

CD 1 - Vivaldi, Bach

CD 1 ANTONIO VIVALDI 1678-1741 71:16
Concerto for Violoncello, Strings and Basso continuo in A minor RV 418
[1] I Allegro 3:26
[2] II [Andante] 3:20
[3] III Allegro 3:02
Concerto for Violoncello, Strings and Basso continuo in C major RV 413
[4] I Allegro 2:40
[5] II Largo 3:00
[6] III Allegro 2:13
Concerto for Violin, Violoncello, Strings and Basso continuo in B-flat major RV 547
[7] I Allegro [moderato] 3:59
[8] II Andante 2:04
[9] III Allegro molto 2:38
[10] Concerto for Violoncello, Strings and Basso continuo in D major RV 403 6:49
Allegro - Andante - Allegro
[11] Concerto for Violoncello, Strings and Basso continuo in B minor RV 424 9:17
Allegro non molto - Largo - Allegro
[12] Concerto for Violoncello, Strings and Basso continuo in A minor RV 419 7:52
Allegro - Largo - Allegro
[13] Concerto for Violoncello, Bassoon, Strings and Basso continuo 5:53
in E minor RV 409
I Adagio - Allegro molto - II Allegro - Adagio - III Allegro
[14] Concerto for 2 Violins, 2 Violoncellos and Strings 9:49 in D major RV 564 9:49
Allegro - Largo - Allegro
JOHANN SEBASTIAN BACH 1685-1750
[15] Concerto in D minor (fragment) 4:24
After the first movement of the Flute Sonata in B minor BWV1030, arranged by Frans Brüggen
Anner Bylsma solo violoncello (Motteo Coffriller, ca. 1695)
Tafelmusik on period instruments
Jeanne Lamon direction [1-14] & solo violin [7-9/14] (Giovanni Paolo Maggini, ca. 1610-20)
Michael McCraw bassoon [13]
Stephen Marvin solo violin [14]
Christina Mahler solo violoncello II [14]
Charlotte Nediger harpsichord [1-14] (Crynen)
Sigiswald Kuijken violin I [15] (Maggini School, mid-17th century)
Lucy van Dael violin II [15] (Gennario Gagliano, 1732)
Wieland Kuijken bass viol I [15] (18th century)
Adelheid Glatt bass viol II [15] (18th century)
Anthony Woodrow violone [15] (Jaap Bolink, 1972)
Gustav Leonhardt harpsichord [15] (David Rubio, 1975)

CD 2 - Boccherini

CD 2 LUIGI BOCCHERINI 1743-1805 64:23
Concerto for Violoncello and Orchestra in G major G 480
[1] I Allegro 7:02
[2] II Adagio 4:57
[3] III Allegro 3:59
Concerto for Violoncello and Orchestra in D major G 483
[4] I Allegro maestoso 7:06
[5] II Andante lentarello 5:25
[6] III Allegro con moto 5:23
Concerto for Violoncello and Orchestra in D major G 476
[7] I Allegro 6:12
[8] II Largo 5:00
[9] III Allegro piacere 3:40
Concerto for Violoncello and Orchestra in C major G 573
[10] I Maestoso 5:41
[11] II Largo cantabile 4:15
[12] III Allegro comodo 5:43
Anner Bylsma violoncello (Matteo Goffriller, ca. 1695)
Tafelmusik on period instruments
Jeanne Lamon direction

CD 3 - Haydn, Kraft

CD 3 JOSEPH HAYDN 1732-1809 66:07
Concerto for Violoncello and Orchestra No. 1 in C major Hob. VIIb: 1
Cadenzas: contemporary (extended)
[1] I Moderato 8:47
[2] II Adagio 7:57
[3] III Allegro molto 5:54
Concerto for Violoncello and Orchestra No. 2 in D major Hob. VIIb: 2
Cadenzas: Anner Bylsma
[4] I Allegro moderato 12:44
[5] II Adagio 5:31
[6] III Rondo. Allegro 5:02
ANTON KRAFT 1749-1820
Concerto for Violoncello and Orchestra in C major op. 4
[7] I Allegro aperto 8:39
[8] II Romanza. Andante 5:35
[9] III Rondo alla Cosacca. Moderato 5:58
Cadenza: Anton Kraft
Anner Bylsma violoncello (Matteo Goffriller, ca. 1695)
Tafelmusik on period instruments
Jeanne Lamon direction

CD 4 - Beethoven

CD 4 LUDWIG VAN BEETHOVEN 1770-1827 71:26
Concerto for Piano, Violin, Violoncello and Orchestra
in C major op. 56 "Triple Concerto"
[1] I Allegro 17:20
[2] II Largo 4:23
[3] III Rondo alla Polacca 13:01
Quintet for 2 Violins, Viola and 2 Violoncellos in A major
Contemporary arrangement for String Quintet after the
Sonata for Piano and Violin in A major, op. 47 "Kreutzer"
[4] I Adagio sostenuto - Presto 14:00
[5] II Andante con Variazioni (I—IV) 13:47
[6] III Presto 8:45
Anner Bylsma violoncello
Paul Badura-Skoda fortepiano [1-3]
Franzjosef Maier violin & conductor [1-3]
Collegium Aureum on period instruments [1-3]
L'Archibudelli [4-6]
Vera Beths • Lucy van Dael violins
Jurgen Kussmaul viola
Lidewij Scheifes violoncello

CD 5 - Servais

CD 5 FRANÇOIS SERVAIS 1807-1866 58:30
[1] Souvenir de Bade op. 20 14:22
Grande Fantaisie for Violoncello and Orchestra
Moderato assai quasi Andante - Allegro non troppo - Tema. Andante quasi Allegretto -
Variation 1. Allegro non troppo - Variation 2. Un росо più Moderato -
Adagio cantabile - Allegretto un росо vivo
[2] Caprice in A major op. 11/4 3:55
for 2 Violoncellos
Largo
[3] Caprice in D major op. 11/2 2:12
for 2 Violoncellos
Andante
[4] Caprice sur des motifs de l'opéra Le Comte Ory op. 3 9:06
for 2 Violoncellos
Andantino sostenuto - Variations 1 and 2 - Allegro risoluto -Allegretto - Allegro più mosso
[5] Grand Duo de Concert (sur deux airs nationaux anglais) 12:29
for Violin and Violoncello
Allegro vivace - Lento - Andante cantabile - "God Save the Queen" - Variation - Adagio espressivo -
Allegro - "London is out of Sorrow" -Росо più Presto - Presto
[6] Souvenir de Spa op. 2 16:26
Fantaisie for Violoncello and Strings
Allegro agitato - Moderato Récit. - Cantabile espressivo - Allegro ma non troppo - Allegro - Andantino - Allegro
Anner Bylsma violoncello (Antonio Stradivari, 1701, the "Servais")*
The Smithsonian Chamber Players
Vera Beth violin (Antonio Stradivari, 1679, the "ex Parera")**
Joseph Gatwood violin (Antonio Stradivari, 1679, the "ex Parera")**
Melissa Graybeal viola (George Craske, 1845)
Kenneth Slowik violoncello (Gianfrancesco Pressenda, 1835)
Richard Myron double bass (Dominicus Busan, 1743)
James Weaver harmonium [1] (assisted by Gary Sturm)
* From the collection of the Smithsonian Institution, Washington, DC
** On loan to the Smithsonian Institution

CD 6 - Franchomme, Chopin

CD 6 AUGUSTE FRANCHOMME 1808-1884 63:37
[1] Air auvergnat varié in A minor op. 26 11:29
for Violoncello and Strings
Andante - Tema. Andante - L'istesso tempo -
Allegro non troppo - a Tempo ben risoluto
[2] Caprice in C major op. 7/7 4:38
for 2 Violoncellos
Andante maestoso - Allegro agitato - Andante maestoso
[3] Nocturne in C major 5:47
for Violoncello and Piano, after Chopin: Nocturnes op. 15/1 & 37/1
Andante cantabile - Lento sostenuto - Tempo I
[4] Grande Valse op. 34 8:25
Morceau de concert for Violoncello and Strings
Introduction. Largo - Allegro
FRÉDÉRIC CHOPIN 1810-1849 / AUGUSTE FRANCHOMME
[5] Grand Duo concertant sur des thèmes de Robert le Diable 12:36
for Violoncello and Piano
Introduction. Largo - Andantino - Allegretto - Andante cantabile - Tempo I
AUGUSTE FRANCHOMME
[6] Caprice in A minor op. 7/4 2:47
for 2 Violoncellos
Largo
[7] Nocturne in A-flat major op. 15/3 4:47
for Violoncello and Piano
Andante sostenuto
[8] Caprice in E minor op. 7/2 3:17
for 2 Violoncellos
Andante
[9] Air russe varié in D minor op. 32/2 9:49
for Violoncello and Strings
Poco lento - Tema. Andante sostenuto - Allegro moderato - Allegro - Lento - Allegro moderato
Anner Bylsma violoncello (Antonio Stradivari, 1701, the "Servais")
L'Archibudelli & The Smithsonian Chamber Players
Vera Beth violin I (Antonio Stradivari, 1687 the "Ole Bull")
Joseph Gatwood violin II (Antonio Stradivari, 1709, the "Creffuhle")
Guus Jeukendrup viola (Antonio Stradivari, 1695, the "Herbert Axelrod")
Kenneth Slowik violoncello (Carlo Antonio Testore, ca. 1750)
Marji Danilow double bass (Carlo Giuseppe Testore, ca. 1695)
Lambert Orkis pianoforte (Érard, 1854)
Stradivari and Érard instruments from the collection of the Smithsonian Institution, Washington, DC

Информация о записях

CD 1 Recording: Hervormde Kerk, Bennebroek, The Netherlands, June 25-27, 1990 [1-9];
Humbercrest United Church, Toronto, May 16, 1996 [10-14];
Doopsgezinde Kerk, Amsterdam, February 1975 [15]
Producer / Recording Supervisor: Wolf Erichson
Recording Engineer / Editing: Stephan Schellmann (Tritonus) [1-9]
(P) 1976/1992/1997 Sony Music Entertainment
CD 2 Recording: Kirche der Karlshöhe, Ludwigsburg, Germany, September 1988 [1-6];
Doopsgezinde Kerk, Amsterdam, September 15-17, 1992 [7-12]
Producer / Recording Supervisor: Wolf Erichson [7-12]
Recording Engineer / Editing: Markus Heiland (Tritonus) [7-12]
(P) 1989/1993 Sony Music Entertainment
CD 3 Recording: Humbercrest United Church, Toronto, October 29-31, 1989
Producer / Recording Supervisor: Wolf Erichson
Recording Engineer / Editing: Andreas Neubronner (Tritonus)
(P) 1990 Sony Music Entertainment
CD 4 Recording: Cedernsaal, Schloss Kirchheim, Germany, June 1974 [1-3];
Doopsgezinde Kerk, Amsterdam, June 5, 1991 [4-6]
Producer / Recording Supervisor: Wolf Erichson [4-6]
(P) 1990/1992 Sony Music Entertainment
CD 5 Recording: Hall of Musical Instruments, National Museum of American History, Smithsonian Institution, Washington, DC, April 9-11, 1986
Producers & Engineers: Marc Aubort & Joanna Nickrenz (Elite Recordings Inc.)
(P) 1988 Sony Music Entertainment
CD 6 Recording: American Academy of Arts and Letters, New York City, January 25-28, 1993
Producer / Recording Supervisor: Wolf Erichson
Recording Engineer / Editing: Stephan Schellmann (Tritonus)
(P) 1994 Sony Music Entertainment
Photos (C) Carine Bijlsma • Artwork: [ec:ko] communications
Editorial: Jochen Rudelt (textbouse)
Reissue producer: Robert Russ
This compilation (P) & (C) 2014 Sony Music Entertainment

Лог создания рипаCD1

Exact Audio Copy V1.0 beta 3 from 29. August 2011
EAC extraction logfile from 4. June 2014, 16:33
Anner Bylsma / Collection CD1
Used drive : ATAPI iHBS112 2 Adapter: 2 ID: 0
Read mode : SecureUtilize accurate stream : YesDefeat audio cache : YesMake use of C2 pointers : No
Read offset correction : 6Overread into Lead-In and Lead-Out : NoFill up missing offset samples with silence : YesDelete leading and trailing silent blocks : NoNull samples used in CRC calculations : YesUsed interface : Native Win32 interface for Win NT & 2000Gap handling : Appended to previous track
Used output format : User Defined EncoderSelected bitrate : 1024 kBit/sQuality : HighAdd ID3 tag : NoCommand line compressor : C:\Program Files\FLAC Frontend\tools\flac.exeAdditional command line options : -8 -V -T "ARTIST=%artist%" -T "TITLE=%title%" -T "ALBUM=%albumtitle%" -T "DATE=%year%" -T "TRACKNUMBER=%tracknr%" -T "TOTALTRACKS=%numtracks%" -T "GENRE=%genre%" -T "ALBUMARTIST=%albumartist%" -T "ALBUM ARTIST=%albumartist%" -T "DISCNUMBER=%cdnumber%" -T "TOTALDISCS=%totalcds%" -T "COMMENT=EAC Secure Mode, Test & Copy, AccurateRip, FLAC -8" %source%
TOC of the extracted CD
Track | Start | Length | Start sector | End sector --------------------------------------------------------- 1 | 0:00.00 | 3:25.45 | 0 | 15419 2 | 3:25.45 | 3:20.17 | 15420 | 30436 3 | 6:45.62 | 3:09.18 | 30437 | 44629 4 | 9:55.05 | 2:39.52 | 44630 | 56606 5 | 12:34.57 | 3:00.30 | 56607 | 70136 6 | 15:35.12 | 2:20.35 | 70137 | 80671 7 | 17:55.47 | 3:59.10 | 80672 | 98606 8 | 21:54.57 | 2:04.22 | 98607 | 107928 9 | 23:59.04 | 2:44.65 | 107929 | 120293 10 | 26:43.69 | 6:52.74 | 120294 | 151267 11 | 33:36.68 | 9:21.57 | 151268 | 193399 12 | 42:58.50 | 7:56.74 | 193400 | 229173 13 | 50:55.49 | 5:57.36 | 229174 | 255984 14 | 56:53.10 | 9:55.72 | 255985 | 300681 15 | 66:49.07 | 4:24.48 | 300682 | 320529
Track 1
Filename O:\DL\Anner Bylsma - Collection CD1 (2014) [FLAC]\01 - Concerto in A minor for Violincello, Strings and Basso Continuo, RV 418, I Allegro.wav
Pre-gap length 0:00:02.00
Peak level 93.3 % Extraction speed 4.7 X Track quality 100.0 % Test CRC 41D97DC0 Copy CRC 41D97DC0 Track not present in AccurateRip database Copy OK
Track 2
Filename O:\DL\Anner Bylsma - Collection CD1 (2014) [FLAC]\02 - Concerto in A minor for Violincello, Strings and Basso Continuo, RV 418, II (Andante).wav
Peak level 38.6 % Extraction speed 5.1 X Track quality 100.0 % Test CRC A0461CB4 Copy CRC A0461CB4 Track not present in AccurateRip database Copy OK
Track 3
Filename O:\DL\Anner Bylsma - Collection CD1 (2014) [FLAC]\03 - Concerto in A minor for Violincello, Strings and Basso Continuo, RV 418, III Allegro.wav
Peak level 95.3 % Extraction speed 4.5 X Track quality 99.9 % Test CRC 69786C50 Copy CRC 69786C50 Track not present in AccurateRip database Copy OK
Track 4
Filename O:\DL\Anner Bylsma - Collection CD1 (2014) [FLAC]\04 - Concerto in G Major for Violincello, Strings and Basso Continuo, RV 413, I Allegro.wav
Pre-gap length 0:00:07.00
Peak level 72.9 % Extraction speed 4.6 X Track quality 99.9 % Test CRC 1446B103 Copy CRC 1446B103 Track not present in AccurateRip database Copy OK
Track 5
Filename O:\DL\Anner Bylsma - Collection CD1 (2014) [FLAC]\05 - Concerto in G Major for Violincello, Strings and Basso Continuo, RV 413, II Largo.wav
Peak level 56.7 % Extraction speed 5.9 X Track quality 100.0 % Test CRC 610F7A67 Copy CRC 610F7A67 Track not present in AccurateRip database Copy OK
Track 6
Filename O:\DL\Anner Bylsma - Collection CD1 (2014) [FLAC]\06 - Concerto in G Major for Violincello, Strings and Basso Continuo, RV 413, III Allegro.wav
Peak level 68.2 % Extraction speed 6.1 X Track quality 100.0 % Test CRC 250F80A7 Copy CRC 250F80A7 Track not present in AccurateRip database Copy OK
Track 7
Filename O:\DL\Anner Bylsma - Collection CD1 (2014) [FLAC]\07 - Concerto in B-flat Major for Violin, Violincello, Strings & Basso Continuo, RV 547, I Allegro (moderato).wav
Pre-gap length 0:00:07.00
Peak level 85.3 % Extraction speed 6.8 X Track quality 100.0 % Test CRC 23BCAD84 Copy CRC 23BCAD84 Track not present in AccurateRip database Copy OK
Track 8
Filename O:\DL\Anner Bylsma - Collection CD1 (2014) [FLAC]\08 - Concerto in B-flat Major for Violin, Violincello, Strings & Basso Continuo, RV 547, II Andante.wav
Peak level 51.7 % Extraction speed 6.4 X Track quality 100.0 % Test CRC A2432029 Copy CRC A2432029 Track not present in AccurateRip database Copy OK
Track 9
Filename O:\DL\Anner Bylsma - Collection CD1 (2014) [FLAC]\09 - Concerto in B-flat Major for Violin, Violincello, Strings & Basso Continuo, RV 547, III Allegro molto.wav
Peak level 93.5 % Extraction speed 6.8 X Track quality 100.0 % Test CRC 5066A99D Copy CRC 5066A99D Track not present in AccurateRip database Copy OK
Track 10
Filename O:\DL\Anner Bylsma - Collection CD1 (2014) [FLAC]\10 - Concerto for Violoncello in D Major, RV 403.wav
Pre-gap length 0:00:07.00
Peak level 68.3 % Extraction speed 7.3 X Track quality 99.9 % Test CRC 378A2707 Copy CRC 378A2707 Track not present in AccurateRip database Copy OK
Track 11
Filename O:\DL\Anner Bylsma - Collection CD1 (2014) [FLAC]\11 - Concerto for Violoncello in B minor, RV 424.wav
Pre-gap length 0:00:04.25
Peak level 63.0 % Extraction speed 8.2 X Track quality 99.9 % Test CRC 8AF44D8F Copy CRC 8AF44D8F Track not present in AccurateRip database Copy OK
Track 12
Filename O:\DL\Anner Bylsma - Collection CD1 (2014) [FLAC]\12 - Concerto for Violoncello in A minor, RV 419.wav
Pre-gap length 0:00:04.60
Peak level 70.0 % Extraction speed 9.4 X Track quality 100.0 % Test CRC 3CDA3F8F Copy CRC 3CDA3F8F Track not present in AccurateRip database Copy OK
Track 13
Filename O:\DL\Anner Bylsma - Collection CD1 (2014) [FLAC]\13 - Concerto for Violoncello, Bassoon and Strings in E minor, RV 409.wav
Pre-gap length 0:00:04.68
Peak level 78.3 % Extraction speed 9.7 X Track quality 100.0 % Test CRC 5060F1D5 Copy CRC 5060F1D5 Track not present in AccurateRip database Copy OK
Track 14
Filename O:\DL\Anner Bylsma - Collection CD1 (2014) [FLAC]\14 - Concerto for 2 Violins, 2 Violoncellos and Strings in D Major, RV 564.wav
Pre-gap length 0:00:04.00
Peak level 86.0 % Extraction speed 9.7 X Track quality 99.9 % Test CRC 9646D58D Copy CRC 9646D58D Track not present in AccurateRip database Copy OK
Track 15
Filename O:\DL\Anner Bylsma - Collection CD1 (2014) [FLAC]\15 - Concerto in D Minor (Fragment).wav
Pre-gap length 0:00:07.00
Peak level 55.2 % Extraction speed 8.5 X Track quality 99.9 % Test CRC AB276605 Copy CRC AB276605 Track not present in AccurateRip database Copy OK
None of the tracks are present in the AccurateRip database
No errors occurred
End of status report
---- CUETools DB Plugin V2.1.3
[CTDB TOCID: VOyAXSzhw6s2R.WETnj6uzfsXJQ-] disk not present in database, Submit result: VOyAXSzhw6s2R.WETnj6uzfsXJQ- has been uploaded
==== Log checksum 0439611EC546BEE33E405B229D5C989E4D44FA93DBDF8671B352B57B86A12F56 ====

CD2

Exact Audio Copy V1.0 beta 3 from 29. August 2011
EAC extraction logfile from 5. June 2014, 8:19
Anner Bylsma / Collection CD2
Used drive : ATAPI iHBS112 2 Adapter: 2 ID: 0
Read mode : SecureUtilize accurate stream : YesDefeat audio cache : YesMake use of C2 pointers : No
Read offset correction : 6Overread into Lead-In and Lead-Out : NoFill up missing offset samples with silence : YesDelete leading and trailing silent blocks : NoNull samples used in CRC calculations : YesUsed interface : Native Win32 interface for Win NT & 2000Gap handling : Appended to previous track
Used output format : User Defined EncoderSelected bitrate : 1024 kBit/sQuality : HighAdd ID3 tag : NoCommand line compressor : C:\Program Files\FLAC Frontend\tools\flac.exeAdditional command line options : -8 -V -T "ARTIST=%artist%" -T "TITLE=%title%" -T "ALBUM=%albumtitle%" -T "DATE=%year%" -T "TRACKNUMBER=%tracknr%" -T "TOTALTRACKS=%numtracks%" -T "GENRE=%genre%" -T "ALBUMARTIST=%albumartist%" -T "ALBUM ARTIST=%albumartist%" -T "DISCNUMBER=%cdnumber%" -T "TOTALDISCS=%totalcds%" -T "COMMENT=EAC Secure Mode, Test & Copy, AccurateRip, FLAC -8" %source%
TOC of the extracted CD
Track | Start | Length | Start sector | End sector --------------------------------------------------------- 1 | 0:00.00 | 7:01.50 | 0 | 31624 2 | 7:01.50 | 4:56.45 | 31625 | 53869 3 | 11:58.20 | 4:04.35 | 53870 | 72204 4 | 16:02.55 | 7:06.00 | 72205 | 104154 5 | 23:08.55 | 5:25.12 | 104155 | 128541 6 | 28:33.67 | 5:27.73 | 128542 | 153139 7 | 34:01.65 | 6:12.00 | 153140 | 181039 8 | 40:13.65 | 5:00.00 | 181040 | 203539 9 | 45:13.65 | 3:45.25 | 203540 | 220439 10 | 48:59.15 | 5:41.50 | 220440 | 246064 11 | 54:40.65 | 4:15.50 | 246065 | 265239 12 | 58:56.40 | 5:44.00 | 265240 | 291039
Track 1
Filename O:\DL\Anner Bylsma - Collection CD2 (2014) [FLAC]\01 - Cello Concerto No. 7 in G major, G 480 Allegro.wav
Pre-gap length 0:00:02.00
Peak level 66.9 % Extraction speed 5.2 X Track quality 100.0 % Test CRC 2BA0FC29 Copy CRC 2BA0FC29 Track not present in AccurateRip database Copy OK
Track 2
Filename O:\DL\Anner Bylsma - Collection CD2 (2014) [FLAC]\02 - Cello Concerto No. 7 in G major, G 480 Adagio.wav
Peak level 42.4 % Extraction speed 5.9 X Track quality 100.0 % Test CRC 88AB7E70 Copy CRC 88AB7E70 Track not present in AccurateRip database Copy OK
Track 3
Filename O:\DL\Anner Bylsma - Collection CD2 (2014) [FLAC]\03 - Cello Concerto No. 7 in G major, G 480 Allegro.wav
Peak level 56.7 % Extraction speed 6.3 X Track quality 100.0 % Test CRC E7D30867 Copy CRC E7D30867 Track not present in AccurateRip database Copy OK
Track 4
Filename O:\DL\Anner Bylsma - Collection CD2 (2014) [FLAC]\04 - Cello Concerto No. 10 in D major, G 483 Allegro maestoso.wav
Pre-gap length 0:00:05.00
Peak level 98.3 % Extraction speed 7.1 X Track quality 100.0 % Test CRC 4391B0B8 Copy CRC 4391B0B8 Track not present in AccurateRip database Copy OK
Track 5
Filename O:\DL\Anner Bylsma - Collection CD2 (2014) [FLAC]\05 - Cello Concerto No. 10 in D major, G 483 Andante lentarello.wav
Peak level 84.6 % Extraction speed 7.4 X Track quality 100.0 % Test CRC 4D9AA041 Copy CRC 4D9AA041 Track not present in AccurateRip database Copy OK
Track 6
Filename O:\DL\Anner Bylsma - Collection CD2 (2014) [FLAC]\06 - Cello Concerto No. 10 in D major, G 483 Allegro e con moto.wav
Peak level 98.3 % Extraction speed 7.1 X Track quality 99.9 % Test CRC 3AA6F96E Copy CRC 3AA6F96E Track not present in AccurateRip database Copy OK
Track 7
Filename O:\DL\Anner Bylsma - Collection CD2 (2014) [FLAC]\07 - Concerto for Violoncello and Orchestra in D Major, G. 476 I. Allegro.wav
Pre-gap length 0:00:05.00
Peak level 70.1 % Extraction speed 8.8 X Track quality 100.0 % Test CRC 47F1F97B Copy CRC 47F1F97B Track not present in AccurateRip database Copy OK
Track 8
Filename O:\DL\Anner Bylsma - Collection CD2 (2014) [FLAC]\08 - Concerto for Violoncello and Orchestra in D Major, G. 476 II. Largo.wav
Peak level 37.9 % Extraction speed 9.0 X Track quality 100.0 % Test CRC 28208E1C Copy CRC 28208E1C Track not present in AccurateRip database Copy OK
Track 9
Filename O:\DL\Anner Bylsma - Collection CD2 (2014) [FLAC]\09 - Concerto for Violoncello and Orchestra in D Major, G. 476 III. Allegro piacere.wav
Peak level 63.8 % Extraction speed 9.0 X Track quality 100.0 % Test CRC EA388DA3 Copy CRC EA388DA3 Track not present in AccurateRip database Copy OK
Track 10
Filename O:\DL\Anner Bylsma - Collection CD2 (2014) [FLAC]\10 - Concerto for Violoncello and Orchestra in C Major, G. 573 I. Maestoso.wav
Pre-gap length 0:00:05.00
Peak level 94.2 % Extraction speed 9.7 X Track quality 100.0 % Test CRC 314C2A3D Copy CRC 314C2A3D Track not present in AccurateRip database Copy OK
Track 11
Filename O:\DL\Anner Bylsma - Collection CD2 (2014) [FLAC]\11 - Concerto for Violoncello and Orchestra in C Major, G. 573 II. Largo cantabile.wav
Peak level 31.6 % Extraction speed 9.7 X Track quality 100.0 % Test CRC 5231EF0F Copy CRC 5231EF0F Track not present in AccurateRip database Copy OK
Track 12
Filename O:\DL\Anner Bylsma - Collection CD2 (2014) [FLAC]\12 - Concerto for Violoncello and Orchestra in C Major, G. 573 III. Allegro comodo.wav
Peak level 95.3 % Extraction speed 10.2 X Track quality 100.0 % Test CRC 88E3D786 Copy CRC 88E3D786 Track not present in AccurateRip database Copy OK
None of the tracks are present in the AccurateRip database
No errors occurred
End of status report
---- CUETools DB Plugin V2.1.3
[CTDB TOCID: x6Vtbbc1zP3BEeWX7yvb4S3C_sk-] disk not present in database, Submit result: x6Vtbbc1zP3BEeWX7yvb4S3C_sk- has been uploaded
==== Log checksum BD5062BFBD4579A358A71E03C8D8831C030550527D3A73EA796AEC96D6DC52C6 ====

CD3

Exact Audio Copy V1.0 beta 3 from 29. August 2011
EAC extraction logfile from 5. June 2014, 18:51
Anner Bylsma / Collection CD3
Used drive : ATAPI iHBS112 2 Adapter: 2 ID: 0
Read mode : SecureUtilize accurate stream : YesDefeat audio cache : YesMake use of C2 pointers : No
Read offset correction : 6Overread into Lead-In and Lead-Out : NoFill up missing offset samples with silence : YesDelete leading and trailing silent blocks : NoNull samples used in CRC calculations : YesUsed interface : Native Win32 interface for Win NT & 2000Gap handling : Appended to previous track
Used output format : User Defined EncoderSelected bitrate : 1024 kBit/sQuality : HighAdd ID3 tag : NoCommand line compressor : C:\Program Files\FLAC Frontend\tools\flac.exeAdditional command line options : -8 -V -T "ARTIST=%artist%" -T "TITLE=%title%" -T "ALBUM=%albumtitle%" -T "DATE=%year%" -T "TRACKNUMBER=%tracknr%" -T "TOTALTRACKS=%numtracks%" -T "GENRE=%genre%" -T "ALBUMARTIST=%albumartist%" -T "ALBUM ARTIST=%albumartist%" -T "DISCNUMBER=%cdnumber%" -T "TOTALDISCS=%totalcds%" -T "COMMENT=EAC Secure Mode, Test & Copy, AccurateRip, FLAC -8" %source%
TOC of the extracted CD
Track | Start | Length | Start sector | End sector --------------------------------------------------------- 1 | 0:00.00 | 8:50.22 | 0 | 39771 2 | 8:50.22 | 7:57.30 | 39772 | 75576 3 | 16:47.52 | 6:02.10 | 75577 | 102736 4 | 22:49.62 | 12:46.70 | 102737 | 160256 5 | 35:36.57 | 5:32.20 | 160257 | 185176 6 | 41:09.02 | 5:09.60 | 185177 | 208411 7 | 46:18.62 | 8:41.35 | 208412 | 247521 8 | 55:00.22 | 5:35.10 | 247522 | 272656 9 | 60:35.32 | 5:58.63 | 272657 | 299569
Track 1
Filename O:\DL\Anner Bylsma - Collection CD3 (2014) [FLAC]\01 - Cello Concerto No. 1 in C major, H. 7b-1 Moderato.wav
Pre-gap length 0:00:02.00
Peak level 88.7 % Extraction speed 2.2 X Track quality 100.0 % Test CRC 8C8DE257 Copy CRC 8C8DE257 Cannot be verified as accurate (confidence 9) [B9F3AF88], AccurateRip returned [60847D1F] (AR v2) Copy OK
Track 2
Filename O:\DL\Anner Bylsma - Collection CD3 (2014) [FLAC]\02 - Cello Concerto No. 1 in C major, H. 7b-1 Adagio.wav
Pre-gap length 0:00:02.35
Peak level 71.1 % Extraction speed 2.2 X Track quality 99.9 % Test CRC 52F7F7C8 Copy CRC 52F7F7C8 Cannot be verified as accurate (confidence 9) [7AB1D0EE], AccurateRip returned [BE21F317] (AR v2) Copy OK
Track 3
Filename O:\DL\Anner Bylsma - Collection CD3 (2014) [FLAC]\03 - Cello Concerto No. 1 in C major, H. 7b-1 Allegro molto.wav
Peak level 78.5 % Extraction speed 2.8 X Track quality 100.0 % Test CRC 6ADF0080 Copy CRC 6ADF0080 Cannot be verified as accurate (confidence 9) [4861CB08], AccurateRip returned [0874D676] (AR v2) Copy OK
Track 4
Filename O:\DL\Anner Bylsma - Collection CD3 (2014) [FLAC]\04 - Cello Concerto No. 2 in D major, H. 7b-2 (Op. 101) Allegro moderato.wav
Pre-gap length 0:00:07.60
Peak level 100.0 % Extraction speed 3.0 X Track quality 99.9 % Test CRC 95A635E5 Copy CRC 95A635E5 Cannot be verified as accurate (confidence 9) [2B6F4B9D], AccurateRip returned [A239197D] (AR v2) Copy OK
Track 5
Filename O:\DL\Anner Bylsma - Collection CD3 (2014) [FLAC]\05 - Cello Concerto No. 2 in D major, H. 7b-2 (Op. 101) Adagio.wav
Pre-gap length 0:00:02.27
Peak level 64.9 % Extraction speed 3.4 X Track quality 100.0 % Test CRC 4D1AD847 Copy CRC 4D1AD847 Cannot be verified as accurate (confidence 9) [F15C0690], AccurateRip returned [FE618A46] (AR v2) Copy OK
Track 6
Filename O:\DL\Anner Bylsma - Collection CD3 (2014) [FLAC]\06 - Cello Concerto No. 2 in D major, H. 7b-2 (Op. 101) Rondo - Allegro.wav
Pre-gap length 0:00:01.20
Peak level 94.2 % Extraction speed 3.5 X Track quality 100.0 % Test CRC E34D0B5B Copy CRC E34D0B5B Cannot be verified as accurate (confidence 9) [9F1C29C4], AccurateRip returned [53F3ED3B] (AR v2) Copy OK
Track 7
Filename O:\DL\Anner Bylsma - Collection CD3 (2014) [FLAC]\07 - Concerto for Cello and Orchestra in C major, Op. 4 Allegro aperto.wav
Pre-gap length 0:00:07.60
Peak level 97.7 % Extraction speed 3.9 X Track quality 100.0 % Test CRC 166769DF Copy CRC 166769DF Cannot be verified as accurate (confidence 9) [6C2A9BCD], AccurateRip returned [3AFA1D2B] (AR v2) Copy OK
Track 8
Filename O:\DL\Anner Bylsma - Collection CD3 (2014) [FLAC]\08 - Concerto for Cello and Orchestra in C major, Op. 4 Romance.wav
Pre-gap length 0:00:02.22
Peak level 68.6 % Extraction speed 4.0 X Track quality 100.0 % Test CRC E64AE799 Copy CRC E64AE799 Cannot be verified as accurate (confidence 9) [57D9E299], AccurateRip returned [7B67DE65] (AR v2) Copy OK
Track 9
Filename O:\DL\Anner Bylsma - Collection CD3 (2014) [FLAC]\09 - Concerto for Cello and Orchestra in C major, Op. 4 Rondo alla Cosacca.wav
Peak level 88.2 % Extraction speed 4.1 X Track quality 100.0 % Test CRC 7A88C809 Copy CRC 7A88C809 Cannot be verified as accurate (confidence 8) [61845999], AccurateRip returned [11B257BB] (AR v2) Copy OK
No tracks could be verified as accurateYou may have a different pressing from the one(s) in the database
No errors occurred
End of status report
---- CUETools DB Plugin V2.1.3
[CTDB TOCID: zRT6xvHZrRTgKpyPvzOfZ.wtFwk-] found, Submit result: zRT6xvHZrRTgKpyPvzOfZ.wtFwk- has been confirmed[5433fedd] (9/9) Accurately ripped
==== Log checksum 17238AFF89AC837123A2B38D805D89ACAB04F6FF1FDC98ADA164ACEE4684DBFB ====

CD4

Exact Audio Copy V1.0 beta 3 from 29. August 2011
EAC extraction logfile from 6. June 2014, 8:34
Anner Bylsma / Collection CD4
Used drive : ATAPI iHBS112 2 Adapter: 2 ID: 0
Read mode : SecureUtilize accurate stream : YesDefeat audio cache : YesMake use of C2 pointers : No
Read offset correction : 6Overread into Lead-In and Lead-Out : NoFill up missing offset samples with silence : YesDelete leading and trailing silent blocks : NoNull samples used in CRC calculations : YesUsed interface : Native Win32 interface for Win NT & 2000Gap handling : Appended to previous track
Used output format : User Defined EncoderSelected bitrate : 1024 kBit/sQuality : HighAdd ID3 tag : NoCommand line compressor : C:\Program Files\FLAC Frontend\tools\flac.exeAdditional command line options : -8 -V -T "ARTIST=%artist%" -T "TITLE=%title%" -T "ALBUM=%albumtitle%" -T "DATE=%year%" -T "TRACKNUMBER=%tracknr%" -T "TOTALTRACKS=%numtracks%" -T "GENRE=%genre%" -T "ALBUMARTIST=%albumartist%" -T "ALBUM ARTIST=%albumartist%" -T "DISCNUMBER=%cdnumber%" -T "TOTALDISCS=%totalcds%" -T "COMMENT=EAC Secure Mode, Test & Copy, AccurateRip, FLAC -8" %source%
TOC of the extracted CD
Track | Start | Length | Start sector | End sector --------------------------------------------------------- 1 | 0:00.00 | 17:22.12 | 0 | 78161 2 | 17:22.12 | 4:23.03 | 78162 | 97889 3 | 21:45.15 | 13:06.71 | 97890 | 156910 4 | 34:52.11 | 13:59.68 | 156911 | 219903 5 | 48:52.04 | 13:47.10 | 219904 | 281938 6 | 62:39.14 | 8:44.70 | 281939 | 321308
Track 1
Filename O:\DL\Anner Bylsma - Collection CD4 (2014) [FLAC]\01 - Concerto for Piano, Violin, Cello & Orchestra in C major, Op. 56, ''Triple Concerto'' Allegro.wav
Pre-gap length 0:00:02.00
Peak level 99.1 % Extraction speed 6.1 X Track quality 99.9 % Test CRC EFDAEC56 Copy CRC EFDAEC56 Track not present in AccurateRip database Copy OK
Track 2
Filename O:\DL\Anner Bylsma - Collection CD4 (2014) [FLAC]\02 - Concerto for Piano, Violin, Cello & Orchestra in C major, Op. 56, ''Triple Concerto'' Largo.wav
Pre-gap length 0:00:01.62
Peak level 60.0 % Extraction speed 7.0 X Track quality 100.0 % Test CRC EFDCD566 Copy CRC EFDCD566 Track not present in AccurateRip database Copy OK
Track 3
Filename O:\DL\Anner Bylsma - Collection CD4 (2014) [FLAC]\03 - Concerto for Piano, Violin, Cello & Orchestra in C major, Op. 56, ''Triple Concerto'' Rondo alla Polacca.wav
Peak level 83.5 % Extraction speed 8.4 X Track quality 100.0 % Test CRC C9933E84 Copy CRC C9933E84 Track not present in AccurateRip database Copy OK
Track 4
Filename O:\DL\Anner Bylsma - Collection CD4 (2014) [FLAC]\04 - Quintet in A Major for 2 Violins, Viola, and 2 Cellos Adagio sostenuto - Presto.wav
Pre-gap length 0:00:06.00
Peak level 69.4 % Extraction speed 9.5 X Track quality 100.0 % Test CRC 3B600C7A Copy CRC 3B600C7A Track not present in AccurateRip database Copy OK
Track 5
Filename O:\DL\Anner Bylsma - Collection CD4 (2014) [FLAC]\05 - Quintet in A Major for 2 Violins, Viola, and 2 Cellos Andante con variazioni. Cantabile.wav
Peak level 43.3 % Extraction speed 10.5 X Track quality 100.0 % Test CRC 4DDE7C75 Copy CRC 4DDE7C75 Track not present in AccurateRip database Copy OK
Track 6
Filename O:\DL\Anner Bylsma - Collection CD4 (2014) [FLAC]\06 - Quintet in A Major for 2 Violins, Viola, and 2 Cellos Presto.wav
Peak level 75.8 % Extraction speed 9.7 X Track quality 99.9 % Test CRC 2E630E5B Copy CRC 2E630E5B Track not present in AccurateRip database Copy OK
None of the tracks are present in the AccurateRip database
No errors occurred
End of status report
---- CUETools DB Plugin V2.1.3
[CTDB TOCID: OG_jOIVmGtmgAQj5RkcSiUey6pw-] disk not present in database, Submit result: OG_jOIVmGtmgAQj5RkcSiUey6pw- has been uploaded
==== Log checksum E27BA59B61660974B390FBA960C70A1A4515067EC29B17F6F11BE1406A473A17 ====

CD5

Exact Audio Copy V1.0 beta 3 from 29. August 2011
EAC extraction logfile from 6. June 2014, 9:05
Anner Bylsma / Collection CD5
Used drive : ATAPI iHBS112 2 Adapter: 2 ID: 0
Read mode : SecureUtilize accurate stream : YesDefeat audio cache : YesMake use of C2 pointers : No
Read offset correction : 6Overread into Lead-In and Lead-Out : NoFill up missing offset samples with silence : YesDelete leading and trailing silent blocks : NoNull samples used in CRC calculations : YesUsed interface : Native Win32 interface for Win NT & 2000Gap handling : Appended to previous track
Used output format : User Defined EncoderSelected bitrate : 1024 kBit/sQuality : HighAdd ID3 tag : NoCommand line compressor : C:\Program Files\FLAC Frontend\tools\flac.exeAdditional command line options : -8 -V -T "ARTIST=%artist%" -T "TITLE=%title%" -T "ALBUM=%albumtitle%" -T "DATE=%year%" -T "TRACKNUMBER=%tracknr%" -T "TOTALTRACKS=%numtracks%" -T "GENRE=%genre%" -T "ALBUMARTIST=%albumartist%" -T "ALBUM ARTIST=%albumartist%" -T "DISCNUMBER=%cdnumber%" -T "TOTALDISCS=%totalcds%" -T "COMMENT=EAC Secure Mode, Test & Copy, AccurateRip, FLAC -8" %source%
TOC of the extracted CD
Track | Start | Length | Start sector | End sector --------------------------------------------------------- 1 | 0:00.33 | 14:30.47 | 33 | 65329 2 | 14:31.05 | 4:00.05 | 65330 | 83334 3 | 18:31.10 | 2:16.70 | 83335 | 93604 4 | 20:48.05 | 9:14.00 | 93605 | 135154 5 | 30:02.05 | 12:35.70 | 135155 | 191849 6 | 42:38.00 | 16:26.05 | 191850 | 265804
Track 1
Filename O:\DL\Anner Bylsma - Collection CD5 (2014) [FLAC]\01 - Souvenir de Bade.wav
Pre-gap length 0:00:02.33
Peak level 89.7 % Extraction speed 6.3 X Track quality 100.0 % Test CRC 1B5BC474 Copy CRC 1B5BC474 Cannot be verified as accurate (confidence 1) [38E155F5], AccurateRip returned [E408DD89] (AR v2) Copy OK
Track 2
Filename O:\DL\Anner Bylsma - Collection CD5 (2014) [FLAC]\02 - Caprice in A major, Op. 11-4.wav
Pre-gap length 0:00:08.74
Peak level 46.2 % Extraction speed 6.8 X Track quality 100.0 % Test CRC 93D060ED Copy CRC 93D060ED Cannot be verified as accurate (confidence 1) [93687613], AccurateRip returned [34847AD0] (AR v2) Copy OK
Track 3
Filename O:\DL\Anner Bylsma - Collection CD5 (2014) [FLAC]\03 - Caprice in D major, Op. 11-2.wav
Pre-gap length 0:00:05.04
Peak level 56.8 % Extraction speed 6.5 X Track quality 100.0 % Test CRC 92472B25 Copy CRC 92472B25 Cannot be verified as accurate (confidence 1) [6D764910], AccurateRip returned [3761163C] (AR v2) Copy OK
Track 4
Filename O:\DL\Anner Bylsma - Collection CD5 (2014) [FLAC]\04 - Caprice sur des motifs de l'opera ''Le Comte d'Ory'', Op. 3.wav
Pre-gap length 0:00:05.00
Peak level 47.5 % Extraction speed 8.3 X Track quality 100.0 % Test CRC B3EF461F Copy CRC B3EF461F Cannot be verified as accurate (confidence 1) [82FB65A8], AccurateRip returned [2D5355E1] (AR v2) Copy OK
Track 5
Filename O:\DL\Anner Bylsma - Collection CD5 (2014) [FLAC]\05 - Grand Duo de Concert.wav
Pre-gap length 0:00:07.74
Peak level 74.5 % Extraction speed 8.8 X Track quality 99.9 % Test CRC B88E7931 Copy CRC B88E7931 Cannot be verified as accurate (confidence 1) [97A01B66], AccurateRip returned [1E8BEA0C] (AR v2) Copy OK
Track 6
Filename O:\DL\Anner Bylsma - Collection CD5 (2014) [FLAC]\06 - Souvenir de Spa, Op. 2.wav
Pre-gap length 0:00:06.70
Peak level 93.3 % Extraction speed 4.1 X Track quality 99.7 % Test CRC 8637860C Copy CRC 8637860C Cannot be verified as accurate (confidence 1) [91E2436A], AccurateRip returned [1822198E] (AR v2) Copy OK
No tracks could be verified as accurateYou may have a different pressing from the one(s) in the database
No errors occurred
End of status report
==== Log checksum 02C2ACE7E8603CFF396FD3E66BC4D061A474937917FDDFA2ECF2E3910A521751 ====

CD6

Exact Audio Copy V1.0 beta 3 from 29. August 2011
EAC extraction logfile from 7. June 2014, 7:32
Anner Bylsma / Collection CD6
Used drive : ATAPI iHBS112 2 Adapter: 2 ID: 0
Read mode : SecureUtilize accurate stream : YesDefeat audio cache : YesMake use of C2 pointers : No
Read offset correction : 6Overread into Lead-In and Lead-Out : NoFill up missing offset samples with silence : YesDelete leading and trailing silent blocks : NoNull samples used in CRC calculations : YesUsed interface : Native Win32 interface for Win NT & 2000Gap handling : Appended to previous track
Used output format : User Defined EncoderSelected bitrate : 1024 kBit/sQuality : HighAdd ID3 tag : NoCommand line compressor : C:\Program Files\FLAC Frontend\tools\flac.exeAdditional command line options : -8 -V -T "ARTIST=%artist%" -T "TITLE=%title%" -T "ALBUM=%albumtitle%" -T "DATE=%year%" -T "TRACKNUMBER=%tracknr%" -T "TOTALTRACKS=%numtracks%" -T "GENRE=%genre%" -T "ALBUMARTIST=%albumartist%" -T "ALBUM ARTIST=%albumartist%" -T "DISCNUMBER=%cdnumber%" -T "TOTALDISCS=%totalcds%" -T "COMMENT=EAC Secure Mode, Test & Copy, AccurateRip, FLAC -8" %source%
TOC of the extracted CD
Track | Start | Length | Start sector | End sector --------------------------------------------------------- 1 | 0:00.00 | 11:28.50 | 0 | 51649 2 | 11:28.50 | 4:38.22 | 51650 | 72521 3 | 16:06.72 | 5:46.53 | 72522 | 98524 4 | 21:53.50 | 8:24.65 | 98525 | 136389 5 | 30:18.40 | 12:36.10 | 136390 | 193099 6 | 42:54.50 | 2:47.00 | 193100 | 205624 7 | 45:41.50 | 4:47.00 | 205625 | 227149 8 | 50:28.50 | 3:17.00 | 227150 | 241924 9 | 53:45.50 | 9:49.06 | 241925 | 286105
Track 1
Filename O:\DL\Anner Bylsma - Collection CD6 (2014) [FLAC]\01 - Air auvergnat varie in A Minor, Op. 26.wav
Pre-gap length 0:00:02.00
Peak level 93.6 % Extraction speed 5.8 X Track quality 100.0 % Test CRC 81CC3A10 Copy CRC 81CC3A10 Track not present in AccurateRip database Copy OK
Track 2
Filename O:\DL\Anner Bylsma - Collection CD6 (2014) [FLAC]\02 - Caprice in C Major, Op. 7, No. 7.wav
Peak level 51.6 % Extraction speed 6.4 X Track quality 100.0 % Test CRC 442B4403 Copy CRC 442B4403 Track not present in AccurateRip database Copy OK
Track 3
Filename O:\DL\Anner Bylsma - Collection CD6 (2014) [FLAC]\03 - Nocturne in G Major.wav
Peak level 39.2 % Extraction speed 7.1 X Track quality 100.0 % Test CRC E4257EB9 Copy CRC E4257EB9 Track not present in AccurateRip database Copy OK
Track 4
Filename O:\DL\Anner Bylsma - Collection CD6 (2014) [FLAC]\04 - Grande Valse, Op. 34.wav
Peak level 95.5 % Extraction speed 7.9 X Track quality 100.0 % Test CRC 2FC294DB Copy CRC 2FC294DB Track not present in AccurateRip database Copy OK
Track 5
Filename O:\DL\Anner Bylsma - Collection CD6 (2014) [FLAC]\05 - Grand Duo Concertant pour piano et violoncelle sur des themes de ''Robert le Diable''.wav
Peak level 98.5 % Extraction speed 9.1 X Track quality 100.0 % Test CRC EFAA18CE Copy CRC EFAA18CE Track not present in AccurateRip database Copy OK
Track 6
Filename O:\DL\Anner Bylsma - Collection CD6 (2014) [FLAC]\06 - Caprice in A Minor, Op. 7, No. 4.wav
Peak level 45.7 % Extraction speed 6.5 X Track quality 99.9 % Test CRC 8F4BEF13 Copy CRC 8F4BEF13 Track not present in AccurateRip database Copy OK
Track 7
Filename O:\DL\Anner Bylsma - Collection CD6 (2014) [FLAC]\07 - Nocturne in A-Flat Major, Op. 15, No. 3.wav
Peak level 72.4 % Extraction speed 9.2 X Track quality 100.0 % Test CRC 12CD8089 Copy CRC 12CD8089 Track not present in AccurateRip database Copy OK
Track 8
Filename O:\DL\Anner Bylsma - Collection CD6 (2014) [FLAC]\08 - Caprice in E Minor, Op. 7, No. 2.wav
Peak level 57.3 % Extraction speed 8.9 X Track quality 100.0 % Test CRC A7442409 Copy CRC A7442409 Track not present in AccurateRip database Copy OK
Track 9
Filename O:\DL\Anner Bylsma - Collection CD6 (2014) [FLAC]\09 - Air russe varie in D Minor, Op. 32, No. 2.wav
Peak level 97.7 % Extraction speed 10.3 X Track quality 100.0 % Test CRC BC1CE55B Copy CRC BC1CE55B Track not present in AccurateRip database Copy OK
None of the tracks are present in the AccurateRip database
No errors occurred
End of status report
---- CUETools DB Plugin V2.1.3
[CTDB TOCID: exGkTtLXHd..1x6XeB2UK3YM6rA-] disk not present in database, Submit result: exGkTtLXHd..1x6XeB2UK3YM6rA- has been uploaded
==== Log checksum 14ACB97A7694E3B3AC2829BB3767BACC3071CE0364EF034830E01CEAF2670F36 ====

Содержание индексной карты (.CUE)CD1

REM GENRE ClassicalREM DATE 2014REM DISCID BC10B10FREM COMMENT "ExactAudioCopy v1.0b3"PERFORMER "Anner Bylsma"TITLE "Collection CD1"FILE "01 - Concerto in A minor for Violincello, Strings and Basso Continuo, RV 418, I Allegro.wav" WAVE TRACK 01 AUDIO TITLE "Concerto in A minor for Violincello, Strings and Basso Continuo, RV 418, I Al..." PERFORMER "Anner Bylsma" INDEX 01 00:00:00FILE "02 - Concerto in A minor for Violincello, Strings and Basso Continuo, RV 418, II (Andante).wav" WAVE TRACK 02 AUDIO TITLE "Concerto in A minor for Violincello, Strings and Basso Continuo, RV 418, II (..." PERFORMER "Anner Bylsma" INDEX 01 00:00:00FILE "03 - Concerto in A minor for Violincello, Strings and Basso Continuo, RV 418, III Allegro.wav" WAVE TRACK 03 AUDIO TITLE "Concerto in A minor for Violincello, Strings and Basso Continuo, RV 418, III ..." PERFORMER "Anner Bylsma" INDEX 01 00:00:00 TRACK 04 AUDIO TITLE "Concerto in G Major for Violincello, Strings and Basso Continuo, RV 413, I Al..." PERFORMER "Anner Bylsma" INDEX 00 03:02:18FILE "04 - Concerto in G Major for Violincello, Strings and Basso Continuo, RV 413, I Allegro.wav" WAVE INDEX 01 00:00:00FILE "05 - Concerto in G Major for Violincello, Strings and Basso Continuo, RV 413, II Largo.wav" WAVE TRACK 05 AUDIO TITLE "Concerto in G Major for Violincello, Strings and Basso Continuo, RV 413, II L..." PERFORMER "Anner Bylsma" INDEX 01 00:00:00FILE "06 - Concerto in G Major for Violincello, Strings and Basso Continuo, RV 413, III Allegro.wav" WAVE TRACK 06 AUDIO TITLE "Concerto in G Major for Violincello, Strings and Basso Continuo, RV 413, III ..." PERFORMER "Anner Bylsma" INDEX 01 00:00:00 TRACK 07 AUDIO TITLE "Concerto in B-flat Major for Violin, Violincello, Strings & Basso Continuo, R..." PERFORMER "Anner Bylsma" INDEX 00 02:13:35FILE "07 - Concerto in B-flat Major for Violin, Violincello, Strings & Basso Continuo, RV 547, I Allegro (moderato).wav" WAVE INDEX 01 00:00:00FILE "08 - Concerto in B-flat Major for Violin, Violincello, Strings & Basso Continuo, RV 547, II Andante.wav" WAVE TRACK 08 AUDIO TITLE "Concerto in B-flat Major for Violin, Violincello, Strings & Basso Continuo, R..." PERFORMER "Anner Bylsma" INDEX 01 00:00:00FILE "09 - Concerto in B-flat Major for Violin, Violincello, Strings & Basso Continuo, RV 547, III Allegro molto.wav" WAVE TRACK 09 AUDIO TITLE "Concerto in B-flat Major for Violin, Violincello, Strings & Basso Continuo, R..." PERFORMER "Anner Bylsma" INDEX 01 00:00:00 TRACK 10 AUDIO TITLE "Concerto for Violoncello in D Major, RV 403" PERFORMER "Anner Bylsma" INDEX 00 02:37:65FILE "10 - Concerto for Violoncello in D Major, RV 403.wav" WAVE INDEX 01 00:00:00 TRACK 11 AUDIO TITLE "Concerto for Violoncello in B minor, RV 424" PERFORMER "Anner Bylsma" INDEX 00 06:48:49FILE "11 - Concerto for Violoncello in B minor, RV 424.wav" WAVE INDEX 01 00:00:00 TRACK 12 AUDIO TITLE "Concerto for Violoncello in A minor, RV 419" PERFORMER "Anner Bylsma" INDEX 00 09:16:72FILE "12 - Concerto for Violoncello in A minor, RV 419.wav" WAVE INDEX 01 00:00:00 TRACK 13 AUDIO TITLE "Concerto for Violoncello, Bassoon and Strings in E minor, RV 409" PERFORMER "Anner Bylsma" INDEX 00 07:52:06FILE "13 - Concerto for Violoncello, Bassoon and Strings in E minor, RV 409.wav" WAVE INDEX 01 00:00:00 TRACK 14 AUDIO TITLE "Concerto for 2 Violins, 2 Violoncellos and Strings in D Major, RV 564" PERFORMER "Anner Bylsma" INDEX 00 05:53:36FILE "14 - Concerto for 2 Violins, 2 Violoncellos and Strings in D Major, RV 564.wav" WAVE INDEX 01 00:00:00 TRACK 15 AUDIO TITLE "Concerto in D Minor (Fragment)" PERFORMER "Anner Bylsma" INDEX 00 09:48:72FILE "15 - Concerto in D Minor (Fragment).wav" WAVE INDEX 01 00:00:00

CD2

REM GENRE ClassicalREM DATE 2014REM DISCID 980F280CREM COMMENT "ExactAudioCopy v1.0b3"PERFORMER "Anner Bylsma"TITLE "Collection CD2"FILE "01 - Cello Concerto No. 7 in G major, G 480 Allegro.wav" WAVE TRACK 01 AUDIO TITLE "Cello Concerto No. 7 in G major, G 480 Allegro" PERFORMER "Anner Bylsma" INDEX 01 00:00:00FILE "02 - Cello Concerto No. 7 in G major, G 480 Adagio.wav" WAVE TRACK 02 AUDIO TITLE "Cello Concerto No. 7 in G major, G 480 Adagio" PERFORMER "Anner Bylsma" INDEX 01 00:00:00FILE "03 - Cello Concerto No. 7 in G major, G 480 Allegro.wav" WAVE TRACK 03 AUDIO TITLE "Cello Concerto No. 7 in G major, G 480 Allegro" PERFORMER "Anner Bylsma" INDEX 01 00:00:00 TRACK 04 AUDIO TITLE "Cello Concerto No. 10 in D major, G 483 Allegro maestoso" PERFORMER "Anner Bylsma" INDEX 00 03:59:35FILE "04 - Cello Concerto No. 10 in D major, G 483 Allegro maestoso.wav" WAVE INDEX 01 00:00:00FILE "05 - Cello Concerto No. 10 in D major, G 483 Andante lentarello.wav" WAVE TRACK 05 AUDIO TITLE "Cello Concerto No. 10 in D major, G 483 Andante lentarello" PERFORMER "Anner Bylsma" INDEX 01 00:00:00FILE "06 - Cello Concerto No. 10 in D major, G 483 Allegro e con moto.wav" WAVE TRACK 06 AUDIO TITLE "Cello Concerto No. 10 in D major, G 483 Allegro e con moto" PERFORMER "Anner Bylsma" INDEX 01 00:00:00 TRACK 07 AUDIO TITLE "Concerto for Violoncello and Orchestra in D Major, G. 476 I. Allegro" PERFORMER "Anner Bylsma" INDEX 00 05:22:73FILE "07 - Concerto for Violoncello and Orchestra in D Major, G. 476 I. Allegro.wav" WAVE INDEX 01 00:00:00FILE "08 - Concerto for Violoncello and Orchestra in D Major, G. 476 II. Largo.wav" WAVE TRACK 08 AUDIO TITLE "Concerto for Violoncello and Orchestra in D Major, G. 476 II. Largo" PERFORMER "Anner Bylsma" INDEX 01 00:00:00FILE "09 - Concerto for Violoncello and Orchestra in D Major, G. 476 III. Allegro piacere.wav" WAVE TRACK 09 AUDIO TITLE "Concerto for Violoncello and Orchestra in D Major, G. 476 III. Allegro piacere" PERFORMER "Anner Bylsma" INDEX 01 00:00:00 TRACK 10 AUDIO TITLE "Concerto for Violoncello and Orchestra in C Major, G. 573 I. Maestoso" PERFORMER "Anner Bylsma" INDEX 00 03:40:25FILE "10 - Concerto for Violoncello and Orchestra in C Major, G. 573 I. Maestoso.wav" WAVE INDEX 01 00:00:00FILE "11 - Concerto for Violoncello and Orchestra in C Major, G. 573 II. Largo cantabile.wav" WAVE TRACK 11 AUDIO TITLE "Concerto for Violoncello and Orchestra in C Major, G. 573 II. Largo cantabile" PERFORMER "Anner Bylsma" INDEX 01 00:00:00FILE "12 - Concerto for Violoncello and Orchestra in C Major, G. 573 III. Allegro comodo.wav" WAVE TRACK 12 AUDIO TITLE "Concerto for Violoncello and Orchestra in C Major, G. 573 III. Allegro comodo" PERFORMER "Anner Bylsma" INDEX 01 00:00:00

CD3

REM GENRE ClassicalREM DATE 2014REM DISCID 6A0F9A09REM COMMENT "ExactAudioCopy v1.0b3"PERFORMER "Anner Bylsma"TITLE "Collection CD3"FILE "01 - Cello Concerto No. 1 in C major, H. 7b-1 Moderato.wav" WAVE TRACK 01 AUDIO TITLE "Cello Concerto No. 1 in C major, H. 7b/1 Moderato" PERFORMER "Anner Bylsma" INDEX 01 00:00:00 TRACK 02 AUDIO TITLE "Cello Concerto No. 1 in C major, H. 7b/1 Adagio" PERFORMER "Anner Bylsma" INDEX 00 08:47:62FILE "02 - Cello Concerto No. 1 in C major, H. 7b-1 Adagio.wav" WAVE INDEX 01 00:00:00FILE "03 - Cello Concerto No. 1 in C major, H. 7b-1 Allegro molto.wav" WAVE TRACK 03 AUDIO TITLE "Cello Concerto No. 1 in C major, H. 7b/1 Allegro molto" PERFORMER "Anner Bylsma" INDEX 01 00:00:00 TRACK 04 AUDIO TITLE "Cello Concerto No. 2 in D major, H. 7b/2 (Op. 101) Allegro moderato" PERFORMER "Anner Bylsma" INDEX 00 05:54:25FILE "04 - Cello Concerto No. 2 in D major, H. 7b-2 (Op. 101) Allegro moderato.wav" WAVE INDEX 01 00:00:00 TRACK 05 AUDIO TITLE "Cello Concerto No. 2 in D major, H. 7b/2 (Op. 101) Adagio" PERFORMER "Anner Bylsma" INDEX 00 12:44:43FILE "05 - Cello Concerto No. 2 in D major, H. 7b-2 (Op. 101) Adagio.wav" WAVE INDEX 01 00:00:00 TRACK 06 AUDIO TITLE "Cello Concerto No. 2 in D major, H. 7b/2 (Op. 101) Rondo - Allegro" PERFORMER "Anner Bylsma" INDEX 00 05:31:00FILE "06 - Cello Concerto No. 2 in D major, H. 7b-2 (Op. 101) Rondo - Allegro.wav" WAVE INDEX 01 00:00:00 TRACK 07 AUDIO TITLE "Concerto for Cello and Orchestra in C major, Op. 4 Allegro aperto" PERFORMER "Anner Bylsma" INDEX 00 05:02:00FILE "07 - Concerto for Cello and Orchestra in C major, Op. 4 Allegro aperto.wav" WAVE INDEX 01 00:00:00 TRACK 08 AUDIO TITLE "Concerto for Cello and Orchestra in C major, Op. 4 Romance" PERFORMER "Anner Bylsma" INDEX 00 08:39:13FILE "08 - Concerto for Cello and Orchestra in C major, Op. 4 Romance.wav" WAVE INDEX 01 00:00:00FILE "09 - Concerto for Cello and Orchestra in C major, Op. 4 Rondo alla Cosacca.wav" WAVE TRACK 09 AUDIO TITLE "Concerto for Cello and Orchestra in C major, Op. 4 Rondo alla Cosacca" PERFORMER "Anner Bylsma" INDEX 01 00:00:00

CD4

REM GENRE ClassicalREM DATE 2014REM DISCID 4810BC06REM COMMENT "ExactAudioCopy v1.0b3"PERFORMER "Anner Bylsma"TITLE "Collection CD4"FILE "01 - Concerto for Piano, Violin, Cello & Orchestra in C major, Op. 56, ''Triple Concerto'' Allegro.wav" WAVE TRACK 01 AUDIO TITLE "Concerto for Piano, Violin, Cello & Orchestra in C major, Op. 56, 'Triple Con..." PERFORMER "Anner Bylsma" INDEX 01 00:00:00 TRACK 02 AUDIO TITLE "Concerto for Piano, Violin, Cello & Orchestra in C major, Op. 56, 'Triple Con..." PERFORMER "Anner Bylsma" INDEX 00 17:20:25FILE "02 - Concerto for Piano, Violin, Cello & Orchestra in C major, Op. 56, ''Triple Concerto'' Largo.wav" WAVE INDEX 01 00:00:00FILE "03 - Concerto for Piano, Violin, Cello & Orchestra in C major, Op. 56, ''Triple Concerto'' Rondo alla Polacca.wav" WAVE TRACK 03 AUDIO TITLE "Concerto for Piano, Violin, Cello & Orchestra in C major, Op. 56, 'Triple Con..." PERFORMER "Anner Bylsma" INDEX 01 00:00:00 TRACK 04 AUDIO TITLE "Quintet in A Major for 2 Violins, Viola, and 2 Cellos Adagio sostenuto - Presto" PERFORMER "Anner Bylsma" INDEX 00 13:00:71FILE "04 - Quintet in A Major for 2 Violins, Viola, and 2 Cellos Adagio sostenuto - Presto.wav" WAVE INDEX 01 00:00:00FILE "05 - Quintet in A Major for 2 Violins, Viola, and 2 Cellos Andante con variazioni. Cantabile.wav" WAVE TRACK 05 AUDIO TITLE "Quintet in A Major for 2 Violins, Viola, and 2 Cellos Andante con variazioni...." PERFORMER "Anner Bylsma" INDEX 01 00:00:00FILE "06 - Quintet in A Major for 2 Violins, Viola, and 2 Cellos Presto.wav" WAVE TRACK 06 AUDIO TITLE "Quintet in A Major for 2 Violins, Viola, and 2 Cellos Presto" PERFORMER "Anner Bylsma" INDEX 01 00:00:00

CD5

REM GENRE ClassicalREM DATE 2014REM DISCID 3C0DD806REM COMMENT "ExactAudioCopy v1.0b3"PERFORMER "Anner Bylsma"TITLE "Collection CD5"FILE "01 - Souvenir de Bade.wav" WAVE TRACK 01 AUDIO TITLE "Souvenir de Bade" PERFORMER "Anner Bylsma" PREGAP 00:00:33 INDEX 01 00:00:00 TRACK 02 AUDIO TITLE "Caprice in A major, Op. 11/4" PERFORMER "Anner Bylsma" INDEX 00 14:21:48FILE "02 - Caprice in A major, Op. 11-4.wav" WAVE INDEX 01 00:00:00 TRACK 03 AUDIO TITLE "Caprice in D major, Op. 11/2" PERFORMER "Anner Bylsma" INDEX 00 03:55:01FILE "03 - Caprice in D major, Op. 11-2.wav" WAVE INDEX 01 00:00:00 TRACK 04 AUDIO TITLE "Caprice sur des motifs de l'opera 'Le Comte d'Ory', Op. 3" PERFORMER "Anner Bylsma" INDEX 00 02:11:70FILE "04 - Caprice sur des motifs de l'opera ''Le Comte d'Ory'', Op. 3.wav" WAVE INDEX 01 00:00:00 TRACK 05 AUDIO TITLE "Grand Duo de Concert" PERFORMER "Anner Bylsma" INDEX 00 09:06:01FILE "05 - Grand Duo de Concert.wav" WAVE INDEX 01 00:00:00 TRACK 06 AUDIO TITLE "Souvenir de Spa, Op. 2" PERFORMER "Anner Bylsma" INDEX 00 12:29:00FILE "06 - Souvenir de Spa, Op. 2.wav" WAVE INDEX 01 00:00:00

CD6

REM GENRE ClassicalREM DATE 2014REM DISCID 750EE609REM COMMENT "ExactAudioCopy v1.0b3"PERFORMER "Anner Bylsma"TITLE "Collection CD6"FILE "01 - Air auvergnat varie in A Minor, Op. 26.wav" WAVE TRACK 01 AUDIO TITLE "Air auvergnat varie in A Minor, Op. 26" PERFORMER "Anner Bylsma" INDEX 01 00:00:00FILE "02 - Caprice in C Major, Op. 7, No. 7.wav" WAVE TRACK 02 AUDIO TITLE "Caprice in C Major, Op. 7, No. 7" PERFORMER "Anner Bylsma" INDEX 01 00:00:00FILE "03 - Nocturne in G Major.wav" WAVE TRACK 03 AUDIO TITLE "Nocturne in G Major" PERFORMER "Anner Bylsma" INDEX 01 00:00:00FILE "04 - Grande Valse, Op. 34.wav" WAVE TRACK 04 AUDIO TITLE "Grande Valse, Op. 34" PERFORMER "Anner Bylsma" INDEX 01 00:00:00FILE "05 - Grand Duo Concertant pour piano et violoncelle sur des themes de ''Robert le Diable''.wav" WAVE TRACK 05 AUDIO TITLE "Grand Duo Concertant pour piano et violoncelle sur des themes de 'Robert le D..." PERFORMER "Anner Bylsma" INDEX 01 00:00:00FILE "06 - Caprice in A Minor, Op. 7, No. 4.wav" WAVE TRACK 06 AUDIO TITLE "Caprice in A Minor, Op. 7, No. 4" PERFORMER "Anner Bylsma" INDEX 01 00:00:00FILE "07 - Nocturne in A-Flat Major, Op. 15, No. 3.wav" WAVE TRACK 07 AUDIO TITLE "Nocturne in A-Flat Major, Op. 15, No. 3" PERFORMER "Anner Bylsma" INDEX 01 00:00:00FILE "08 - Caprice in E Minor, Op. 7, No. 2.wav" WAVE TRACK 08 AUDIO TITLE "Caprice in E Minor, Op. 7, No. 2" PERFORMER "Anner Bylsma" INDEX 01 00:00:00FILE "09 - Air russe varie in D Minor, Op. 32, No. 2.wav" WAVE TRACK 09 AUDIO TITLE "Air russe varie in D Minor, Op. 32, No. 2" PERFORMER "Anner Bylsma" INDEX 01 00:00:00
[teatrix.ru].t9941.torrent 
Торрент: Зарегистрирован [ 2015-10-25 20:37 ] · 9D80B16ED55CC1E82FBDA19CF9E664FA16D86206

Скачать .torrent

Скачать

49 KB

Статус: проверено
Скачан: 1 раз
Размер: 1.95 GB
terms.php



Быстрый ответ

Имя:

      
Для отправки сообщений необходимо включить JavaScript
Показать сообщения:    

Текущее время: 03-Дек 16:39

Часовой пояс: UTC + 3


Вы можете начинать темы
Вы можете отвечать на сообщения
Вы не можете редактировать свои сообщения
Вы не можете удалять свои сообщения
Вы не можете голосовать в опросах
Вы не можете прикреплять файлы к сообщениям
Вы можете скачивать файлы