(Concerto) Генри Коуэлл - Концерты для фортепиано с оркестром / Henry Cowell - Piano concertos (Stefan Litwin, Radio Symphony Orchestra Saarbrucken, Michael Stern) - 2001, FLAC (tracks+.cue) lossless


Статистика раздачи [Обновить пиров]
Размер:  277 MB   |    Зарегистрирован:  1 год 1 месяц   |    Скачан:  0 раз

Полного источника не было: Никогда

Личеров:  1  [  0 KB/s  ]   Подробная статистика пиров
 
   
 
 
 

[Цитировать]

Henry Cowell - Piano concertos
Жанр: Concerto
Страна-производитель диска: Germany
Год издания диска: 2001
Издатель (лейбл): Col Legno
Номер по каталогу: WWE20064
Дата записи: 1999
Аудиокодек: FLAC
Тип рипа: tracks+.cue
Битрейт аудио: lossless
Продолжительность: 73'48
Источник: deodac
Наличие сканов в содержимом раздачи: да
Треклист:
Henry Cowell (1897-1965)
Concerto for Piano and Orchestra (1928)
01 I. Polyharmony (3:52)
02 II. Tone Cluster (8:15)
03 III. Counter Rhythm (3:52)
04 Irish Jig for Piano (1925) (2:08)
05 Domnu, the Mother of Waters for Piano (1926) (4:44)

Four Irish Tales for Piano & Orchestra (1922, arr. 1940)

06 I. The Tides of Manaunaun (2:46)
07 II. Exultation (1:54)
08 III. The Harp of Life (5:50)
09 IV. The Lilt of the Reel, irish dance (3:23)
Three Legends for Piano (1922)
10 I. The Tides of Manaunaun (2:42)
11 II. The Hero Sun (3:45)
12 III. The Voice of Lir (3:47)
Sinfonietta for Chamber Orchestra (1928)
13 I. Larghetto (7:25)
14 II. Scherzo. Presto (2:40)
15 III. Markes Passages. Allegro non troppo (3:30)
Concerto Piccolo for Piano & Orchestra (1941, arr.1945)
16 I. Larghetto - Poco piu mosso (4:27)
17 II. Andante - A bit slower (5:00)
18 III. Allegretto - piu mosso (3:38)
Исполнители:
Stefan Litwin, piano
Radio Symphony Orchestra Saarbrucken
Michael Stern, conductor

Лог создания рипа

X Lossless Decoder version 20121027 (142.1)
XLD extraction logfile from 2013-02-17 20:53:04 +0100
Stefan Litwin, Radio Symphony Orchestra Saarbrucken, Michael Stern / Henry Cowell - American Piano Concertos
Used drive : MATSHITA DVD-R UJ-898 (revision HA07)
Ripper mode : XLD Secure RipperDisable audio cache : OK for the drive with a cache less than 1375KiBMake use of C2 pointers : NORead offset correction : 102Max retry count : 20Gap status : Analyzed, Appended (except HTOA)
TOC of the extracted CD Track | Start | Length | Start sector | End sector --------------------------------------------------------- 1 | 00:00:00 | 03:52:10 | 0 | 17409 2 | 03:52:10 | 08:15:20 | 17410 | 54554 3 | 12:07:30 | 03:52:22 | 54555 | 71976 4 | 15:59:52 | 02:08:02 | 71977 | 81578 5 | 18:07:54 | 04:44:61 | 81579 | 102939 6 | 22:52:40 | 02:46:52 | 102940 | 115441 7 | 25:39:17 | 01:54:18 | 115442 | 124009 8 | 27:33:35 | 05:50:52 | 124010 | 150311 9 | 33:24:12 | 03:23:15 | 150312 | 165551 10 | 36:47:27 | 02:42:33 | 165552 | 177734 11 | 39:29:60 | 03:45:05 | 177735 | 194614 12 | 43:14:65 | 03:47:20 | 194615 | 211659 13 | 47:02:10 | 07:25:57 | 211660 | 245091 14 | 54:27:67 | 02:40:60 | 245092 | 257151 15 | 57:08:52 | 03:30:13 | 257152 | 272914 16 | 60:38:65 | 04:27:52 | 272915 | 292991 17 | 65:06:42 | 05:00:73 | 292992 | 315564 18 | 70:07:40 | 03:38:35 | 315565 | 331949
AccurateRip Summary Disc not found in AccurateRip DB.
All Tracks Album gain : -0.29 dB Peak : 0.999969 Statistics Read error : 0 Jitter error (maybe fixed) : 0 Retry sector count : 0 Damaged sector count : 0
Track 01 Filename : /Volumes/MUSIC/T/Henry Cowell - American Piano Concertos (2001) [FLAC]/01 - Concerto for Piano and Orchestra (1928) - I. Polyharmony.flac Pre-gap length : 00:02:00
Track gain : -0.27 dB Peak : 0.777893 CRC32 hash (test run) : 8B4FAF97 CRC32 hash : 8B4FAF97 CRC32 hash (skip zero) : 6772AEC3 AccurateRip v1 signature : 99D74773 AccurateRip v2 signature : A13CD10B ->Track not present in AccurateRip database. Statistics Read error : 0 Jitter error (maybe fixed) : 0 Retry sector count : 0 Damaged sector count : 0
Track 02 Filename : /Volumes/MUSIC/T/Henry Cowell - American Piano Concertos (2001) [FLAC]/02 - Concerto for Piano and Orchestra (1928) - II. Tone Cluster.flac
Track gain : -0.37 dB Peak : 0.999969 CRC32 hash (test run) : 059BAA9C CRC32 hash : 059BAA9C CRC32 hash (skip zero) : B51CACB8 AccurateRip v1 signature : A9056095 AccurateRip v2 signature : 0FB7340A ->Track not present in AccurateRip database. Statistics Read error : 0 Jitter error (maybe fixed) : 0 Retry sector count : 0 Damaged sector count : 0
Track 03 Filename : /Volumes/MUSIC/T/Henry Cowell - American Piano Concertos (2001) [FLAC]/03 - Concerto for Piano and Orchestra (1928) - III. Counter Rhythm.flac
Track gain : -2.05 dB Peak : 0.961975 CRC32 hash (test run) : DB717CB3 CRC32 hash : DB717CB3 CRC32 hash (skip zero) : 8001B8AC AccurateRip v1 signature : 14C724E1 AccurateRip v2 signature : 7112EFE4 ->Track not present in AccurateRip database. Statistics Read error : 0 Jitter error (maybe fixed) : 0 Retry sector count : 0 Damaged sector count : 0
Track 04 Filename : /Volumes/MUSIC/T/Henry Cowell - American Piano Concertos (2001) [FLAC]/04 - Irish Jig (Allegro Rubato) ca. 1925 for Piano.flac Pre-gap length : 00:03:32
Track gain : 0.60 dB Peak : 0.707886 CRC32 hash (test run) : B3374585 CRC32 hash : B3374585 CRC32 hash (skip zero) : 906F141A AccurateRip v1 signature : 2AB823E3 AccurateRip v2 signature : F3E81022 ->Track not present in AccurateRip database. Statistics Read error : 0 Jitter error (maybe fixed) : 0 Retry sector count : 0 Damaged sector count : 0
Track 05 Filename : /Volumes/MUSIC/T/Henry Cowell - American Piano Concertos (2001) [FLAC]/05 - Domnu, the Mother of Waters (1926) for Piano.flac Pre-gap length : 00:03:57
Track gain : 1.87 dB Peak : 0.749023 CRC32 hash (test run) : EBADDB41 CRC32 hash : EBADDB41 CRC32 hash (skip zero) : 42DD4397 AccurateRip v1 signature : E73A4FCC AccurateRip v2 signature : 929CC39A ->Track not present in AccurateRip database. Statistics Read error : 0 Jitter error (maybe fixed) : 0 Retry sector count : 0 Damaged sector count : 0
Track 06 Filename : /Volumes/MUSIC/T/Henry Cowell - American Piano Concertos (2001) [FLAC]/06 - Four Irish Tales (arr. 1940) for Piano & Orchestra - I. The Tides of Manaunaun.flac Pre-gap length : 00:04:55
Track gain : -0.91 dB Peak : 0.999939 CRC32 hash (test run) : B01AF936 CRC32 hash : B01AF936 CRC32 hash (skip zero) : C2FD67D3 AccurateRip v1 signature : 19664D6C AccurateRip v2 signature : 41DC8D30 ->Track not present in AccurateRip database. Statistics Read error : 0 Jitter error (maybe fixed) : 0 Retry sector count : 0 Damaged sector count : 0
Track 07 Filename : /Volumes/MUSIC/T/Henry Cowell - American Piano Concertos (2001) [FLAC]/07 - Four Irish Tales (arr. 1940) for Piano & Orchestra - II. Exultation.flac
Track gain : 0.36 dB Peak : 0.602478 CRC32 hash (test run) : CA954DAB CRC32 hash : CA954DAB CRC32 hash (skip zero) : 69810DC0 AccurateRip v1 signature : 556AC424 AccurateRip v2 signature : 14E6F2F8 ->Track not present in AccurateRip database. Statistics Read error : 0 Jitter error (maybe fixed) : 0 Retry sector count : 0 Damaged sector count : 0
Track 08 Filename : /Volumes/MUSIC/T/Henry Cowell - American Piano Concertos (2001) [FLAC]/08 - Four Irish Tales (arr. 1940) for Piano & Orchestra - III. The Harp of Life.flac
Track gain : 0.76 dB Peak : 0.930237 CRC32 hash (test run) : 244191AE CRC32 hash : 244191AE CRC32 hash (skip zero) : 86ADD1CB AccurateRip v1 signature : 3418672D AccurateRip v2 signature : DCB2D0B1 ->Track not present in AccurateRip database. Statistics Read error : 0 Jitter error (maybe fixed) : 0 Retry sector count : 0 Damaged sector count : 0
Track 09 Filename : /Volumes/MUSIC/T/Henry Cowell - American Piano Concertos (2001) [FLAC]/09 - Four Irish Tales (arr. 1940) for Piano & Orchestra - IV. The Lilt of the Reel.flac
Track gain : -1.54 dB Peak : 0.962128 CRC32 hash (test run) : 66404558 CRC32 hash : 66404558 CRC32 hash (skip zero) : 719A9E7F AccurateRip v1 signature : 3471CA50 AccurateRip v2 signature : 74C0DAEB ->Track not present in AccurateRip database. Statistics Read error : 0 Jitter error (maybe fixed) : 0 Retry sector count : 0 Damaged sector count : 0
Track 10 Filename : /Volumes/MUSIC/T/Henry Cowell - American Piano Concertos (2001) [FLAC]/10 - Three Legends (1922) for Piano - I. The Tides of Manaunaun.flac Pre-gap length : 00:04:27
Track gain : -1.11 dB Peak : 0.999939 CRC32 hash (test run) : 3CF3C30B CRC32 hash : 3CF3C30B CRC32 hash (skip zero) : B2982DE3 AccurateRip v1 signature : 34D5CBC7 AccurateRip v2 signature : F5DA61A9 ->Track not present in AccurateRip database. Statistics Read error : 0 Jitter error (maybe fixed) : 0 Retry sector count : 0 Damaged sector count : 0
Track 11 Filename : /Volumes/MUSIC/T/Henry Cowell - American Piano Concertos (2001) [FLAC]/11 - Three Legends (1922) for Piano - II. The Hero Sun.flac
Track gain : -1.91 dB Peak : 0.954010 CRC32 hash (test run) : 92E601D1 CRC32 hash : 92E601D1 CRC32 hash (skip zero) : 3B82B444 AccurateRip v1 signature : 1A31FEA6 AccurateRip v2 signature : A161F913 ->Track not present in AccurateRip database. Statistics Read error : 0 Jitter error (maybe fixed) : 0 Retry sector count : 0 Damaged sector count : 0
Track 12 Filename : /Volumes/MUSIC/T/Henry Cowell - American Piano Concertos (2001) [FLAC]/12 - Three Legends (1922) for Piano - III. The Voice of Lir.flac
Track gain : 0.99 dB Peak : 0.731537 CRC32 hash (test run) : 5B2B8B70 CRC32 hash : 5B2B8B70 CRC32 hash (skip zero) : 7103B5BC AccurateRip v1 signature : FF44E4A4 AccurateRip v2 signature : AD585661 ->Track not present in AccurateRip database. Statistics Read error : 0 Jitter error (maybe fixed) : 0 Retry sector count : 0 Damaged sector count : 0
Track 13 Filename : /Volumes/MUSIC/T/Henry Cowell - American Piano Concertos (2001) [FLAC]/13 - Sinfonietta (1928) for Chamber Orchestra - I. Larghetto.flac Pre-gap length : 00:05:08
Track gain : 1.70 dB Peak : 0.748016 CRC32 hash (test run) : E0243FBD CRC32 hash : E0243FBD CRC32 hash (skip zero) : C85B1BB9 AccurateRip v1 signature : 671A6B36 AccurateRip v2 signature : 346F0655 ->Track not present in AccurateRip database. Statistics Read error : 0 Jitter error (maybe fixed) : 0 Retry sector count : 0 Damaged sector count : 0
Track 14 Filename : /Volumes/MUSIC/T/Henry Cowell - American Piano Concertos (2001) [FLAC]/14 - Sinfonietta (1928) for Chamber Orchestra - II. Scherzo. Presto.flac
Track gain : -1.28 dB Peak : 0.958740 CRC32 hash (test run) : F3B48580 CRC32 hash : F3B48580 CRC32 hash (skip zero) : BA6F6316 AccurateRip v1 signature : FEC5F58F AccurateRip v2 signature : 7924432F ->Track not present in AccurateRip database. Statistics Read error : 0 Jitter error (maybe fixed) : 0 Retry sector count : 0 Damaged sector count : 0
Track 15 Filename : /Volumes/MUSIC/T/Henry Cowell - American Piano Concertos (2001) [FLAC]/15 - Sinfonietta (1928) for Chamber Orchestra - III. Markes Passages. Allegro non troppo.flac
Track gain : -3.45 dB Peak : 0.999939 CRC32 hash (test run) : CB2537BB CRC32 hash : CB2537BB CRC32 hash (skip zero) : AA289A26 AccurateRip v1 signature : 877DF1B0 AccurateRip v2 signature : 8AAC003F ->Track not present in AccurateRip database. Statistics Read error : 0 Jitter error (maybe fixed) : 0 Retry sector count : 0 Damaged sector count : 0
Track 16 Filename : /Volumes/MUSIC/T/Henry Cowell - American Piano Concertos (2001) [FLAC]/16 - Concerto Piccolo (1941) for Piano & Orchestra - I. Larghetto - Poco piu mosso.flac Pre-gap length : 00:04:55
Track gain : 1.55 dB Peak : 0.715515 CRC32 hash (test run) : 24D28002 CRC32 hash : 24D28002 CRC32 hash (skip zero) : 37DC0ABD AccurateRip v1 signature : DE98C825 AccurateRip v2 signature : 3A7530DF ->Track not present in AccurateRip database. Statistics Read error : 0 Jitter error (maybe fixed) : 0 Retry sector count : 0 Damaged sector count : 0
Track 17 Filename : /Volumes/MUSIC/T/Henry Cowell - American Piano Concertos (2001) [FLAC]/17 - Concerto Piccolo (1941) for Piano & Orchestra - II. Andante - A bit slower.flac
Track gain : 7.52 dB Peak : 0.369049 CRC32 hash (test run) : 637E5184 CRC32 hash : 637E5184 CRC32 hash (skip zero) : 242E140D AccurateRip v1 signature : D7C5C065 AccurateRip v2 signature : 071CC67B ->Track not present in AccurateRip database. Statistics Read error : 0 Jitter error (maybe fixed) : 0 Retry sector count : 0 Damaged sector count : 0
Track 18 Filename : /Volumes/MUSIC/T/Henry Cowell - American Piano Concertos (2001) [FLAC]/18 - Concerto Piccolo (1941) for Piano & Orchestra - III. Allegretto - piu mosso.flac
Track gain : -0.42 dB Peak : 0.999939 CRC32 hash (test run) : 4869EBFE CRC32 hash : 4869EBFE CRC32 hash (skip zero) : DA25DC91 AccurateRip v1 signature : 96B8641D AccurateRip v2 signature : D99CCE43 ->Track not present in AccurateRip database. Statistics Read error : 0 Jitter error (maybe fixed) : 0 Retry sector count : 0 Damaged sector count : 0
No errors occurred
End of status report

Содержание индексной карты (.CUE)

TITLE "Henry Cowell - American Piano Concertos"PERFORMER "Stefan Litwin, Radio Symphony Orchestra Saarbrucken, Michael Stern"REM GENRE "Classical"REM DATE "2001"REM DISCNUMBER 1REM TOTALDISCS 1REM DISCID 01114A12FILE "01 - Concerto for Piano and Orchestra (1928) - I. Polyharmony.wav" WAVE TRACK 01 AUDIO TITLE "Concerto for Piano and Orchestra (1928) - I. Polyharmony" PERFORMER "Stefan Litwin, Radio Symphony Orchestra Saarbrucken, Michael Stern" SONGWRITER "Henry Cowell" INDEX 01 00:00:00FILE "02 - Concerto for Piano and Orchestra (1928) - II. Tone Cluster.wav" WAVE TRACK 02 AUDIO TITLE "Concerto for Piano and Orchestra (1928) - II. Tone Cluster" PERFORMER "Stefan Litwin, Radio Symphony Orchestra Saarbrucken, Michael Stern" SONGWRITER "Henry Cowell" INDEX 01 00:00:00FILE "03 - Concerto for Piano and Orchestra (1928) - III. Counter Rhythm.wav" WAVE TRACK 03 AUDIO TITLE "Concerto for Piano and Orchestra (1928) - III. Counter Rhythm" PERFORMER "Stefan Litwin, Radio Symphony Orchestra Saarbrucken, Michael Stern" SONGWRITER "Henry Cowell" INDEX 01 00:00:00 TRACK 04 AUDIO TITLE "Irish Jig (Allegro Rubato) ca. 1925 for Piano" PERFORMER "Stefan Litwin" SONGWRITER "Henry Cowell" INDEX 00 03:48:65FILE "04 - Irish Jig (Allegro Rubato) ca. 1925 for Piano.wav" WAVE INDEX 01 00:00:00 TRACK 05 AUDIO TITLE "Domnu, the Mother of Waters (1926) for Piano" PERFORMER "Stefan Litwin" SONGWRITER "Henry Cowell" INDEX 00 02:04:20FILE "05 - Domnu, the Mother of Waters (1926) for Piano.wav" WAVE INDEX 01 00:00:00 TRACK 06 AUDIO TITLE "Four Irish Tales (arr. 1940) for Piano & Orchestra - I. The Tides of Manaunaun" PERFORMER "Stefan Litwin, Radio Symphony Orchestra Saarbrucken, Michael Stern" SONGWRITER "Henry Cowell" INDEX 00 04:40:06FILE "06 - Four Irish Tales (arr. 1940) for Piano & Orchestra - I. The Tides of Manaunaun.wav" WAVE INDEX 01 00:00:00FILE "07 - Four Irish Tales (arr. 1940) for Piano & Orchestra - II. Exultation.wav" WAVE TRACK 07 AUDIO TITLE "Four Irish Tales (arr. 1940) for Piano & Orchestra - II. Exultation" PERFORMER "Stefan Litwin, Radio Symphony Orchestra Saarbrucken, Michael Stern" SONGWRITER "Henry Cowell" INDEX 01 00:00:00FILE "08 - Four Irish Tales (arr. 1940) for Piano & Orchestra - III. The Harp of Life.wav" WAVE TRACK 08 AUDIO TITLE "Four Irish Tales (arr. 1940) for Piano & Orchestra - III. The Harp of Life" PERFORMER "Stefan Litwin, Radio Symphony Orchestra Saarbrucken, Michael Stern" SONGWRITER "Henry Cowell" INDEX 01 00:00:00FILE "09 - Four Irish Tales (arr. 1940) for Piano & Orchestra - IV. The Lilt of the Reel.wav" WAVE TRACK 09 AUDIO TITLE "Four Irish Tales (arr. 1940) for Piano & Orchestra - IV. The Lilt of the Reel" PERFORMER "Stefan Litwin, Radio Symphony Orchestra Saarbrucken, Michael Stern" SONGWRITER "Henry Cowell" INDEX 01 00:00:00 TRACK 10 AUDIO TITLE "Three Legends (1922) for Piano - I. The Tides of Manaunaun" PERFORMER "Stefan Litwin" SONGWRITER "Henry Cowell" INDEX 00 03:18:63FILE "10 - Three Legends (1922) for Piano - I. The Tides of Manaunaun.wav" WAVE INDEX 01 00:00:00FILE "11 - Three Legends (1922) for Piano - II. The Hero Sun.wav" WAVE TRACK 11 AUDIO TITLE "Three Legends (1922) for Piano - II. The Hero Sun" PERFORMER "Stefan Litwin" SONGWRITER "Henry Cowell" INDEX 01 00:00:00FILE "12 - Three Legends (1922) for Piano - III. The Voice of Lir.wav" WAVE TRACK 12 AUDIO TITLE "Three Legends (1922) for Piano - III. The Voice of Lir" PERFORMER "Stefan Litwin" SONGWRITER "Henry Cowell" INDEX 01 00:00:00 TRACK 13 AUDIO TITLE "Sinfonietta (1928) for Chamber Orchestra - I. Larghetto" PERFORMER "Radio Symphony Orchestra Saarbrucken, Michael Stern" SONGWRITER "Henry Cowell" INDEX 00 03:42:12FILE "13 - Sinfonietta (1928) for Chamber Orchestra - I. Larghetto.wav" WAVE INDEX 01 00:00:00FILE "14 - Sinfonietta (1928) for Chamber Orchestra - II. Scherzo. Presto.wav" WAVE TRACK 14 AUDIO TITLE "Sinfonietta (1928) for Chamber Orchestra - II. Scherzo. Presto" PERFORMER "Radio Symphony Orchestra Saarbrucken, Michael Stern" SONGWRITER "Henry Cowell" INDEX 01 00:00:00FILE "15 - Sinfonietta (1928) for Chamber Orchestra - III. Markes Passages. Allegro non troppo.wav" WAVE TRACK 15 AUDIO TITLE "Sinfonietta (1928) for Chamber Orchestra - III. Markes Passages. Allegro non troppo" PERFORMER "Radio Symphony Orchestra Saarbrucken, Michael Stern" SONGWRITER "Henry Cowell" INDEX 01 00:00:00 TRACK 16 AUDIO TITLE "Concerto Piccolo (1941) for Piano & Orchestra - I. Larghetto - Poco piu mosso" PERFORMER "Stefan Litwin, Radio Symphony Orchestra Saarbrucken, Michael Stern" SONGWRITER "Henry Cowell" INDEX 00 03:25:33FILE "16 - Concerto Piccolo (1941) for Piano & Orchestra - I. Larghetto - Poco piu mosso.wav" WAVE INDEX 01 00:00:00FILE "17 - Concerto Piccolo (1941) for Piano & Orchestra - II. Andante - A bit slower.wav" WAVE TRACK 17 AUDIO TITLE "Concerto Piccolo (1941) for Piano & Orchestra - II. Andante - A bit slower" PERFORMER "Stefan Litwin, Radio Symphony Orchestra Saarbrucken, Michael Stern" SONGWRITER "Henry Cowell" INDEX 01 00:00:00FILE "18 - Concerto Piccolo (1941) for Piano & Orchestra - III. Allegretto - piu mosso.wav" WAVE TRACK 18 AUDIO TITLE "Concerto Piccolo (1941) for Piano & Orchestra - III. Allegretto - piu mosso" PERFORMER "Stefan Litwin, Radio Symphony Orchestra Saarbrucken, Michael Stern" SONGWRITER "Henry Cowell" INDEX 01 00:00:00
Доп. информация: Генри Коуэлл - знаменательная фигура в американской музыке, связующее звено между поколениями Чарльза Айвза и Джона Кейджа. Композитор и музыковед К. Гэнн писал, что "Коуэлл, даже в сравнении с затворником Айвзом, был самым американским композитором из всех, настоящим Отцом американской музыки". Автор множества сочинений разной стилистики, но прежде всего оставшийся в истории, как один из первых экспериментаторов, пытавшийся создавать новые звукосочетания используя диссонантные многозвучия - кластеры (tone cluster - "гроздь"), с начала 1910х годов широко применяя игру на клавиатуре ладонями, кулаками, локтями и т.п. Черпая вдохновение в ирландской мифологии и неевропейской музыке Коуэлл, почти не знакомый с европейской музыкальной культурой, свободно использовал диссонансы, политональность, атональность, диссонантный контрапункт. Позднее эксперименты Коуэлла, найдут отражение в произведениях Б. Бартока, Дж. Кейджа, Л. Харрисона, С. Райха, Т. Райли, Л. М. Янга.

О диске

Самой ранней фортепианной пьесой Коуэлла с кластерами была "Бог Манаунаун". Для изображения Манаунауна композитор использовал большие аккордовые комплексы. На фоне 2-октавных кластеров звучит диатоническая тема. Когда Коуэлл впервые представил этот прием перед публикой в Сан-Франциско в 1912 году, многие оцепенели от ужаса и страха. Сам автор датировал пьесу 1912 годом, но записана она была лишь в 1917 году и позднее включена в цикл "Ирландских легенд" для фортепиано с оркестром (оркестрованных по просьбе Стоковского), куда также вошли пьесы "Арфа жизни", "Ликование" и "Рил". Кластерная техника широко применяется в Фортепианном концерте (1928) - традиционном по форме, но по содержанию близкому к урбанистическим экспериментам Онеггера, Прокофьева, Мосолова. Коуэлл был первым американским композитором, посетившим Советский Союз и выступившим с концертами в нашей стране (1929). Симфониеттой, представляющей собой аранжировку квартета 1924г. для камерного оркестра (1928) в 1931г. дирижировал сам Антон Веберн.
В 1936 году Коуэлл был заключён в Сан-Квентин - одну из самых суровых тюрем Калифорнии, где провёл 4 года. После этого в его творчестве произошел перелом — он отходит от свободного использования диссонансов к более простому музыкальному языку, развивает неофольклорные, неоклассические тенденции и традиции американской музыки XVIII века — пуританского гимна, фугированного напева. Маленький концерт для фортепиано с оркестром (1941) - один из первых образцов коуэлловского неоклассицизма.
[teatrix.ru].t9942.torrent 
Торрент: Зарегистрирован [ 2015-10-25 20:37 ] · B3DAACDDDC8E5A825B4DA5E6DADCC54B868B14B2

Скачать .torrent

Скачать

14 KB

Статус: проверено
Скачан: 0 раз
Размер: 277 MB
terms.php



Быстрый ответ

Имя:

      
Для отправки сообщений необходимо включить JavaScript
Показать сообщения:    

Текущее время: 10-Дек 11:56

Часовой пояс: UTC + 3


Вы можете начинать темы
Вы можете отвечать на сообщения
Вы не можете редактировать свои сообщения
Вы не можете удалять свои сообщения
Вы не можете голосовать в опросах
Вы не можете прикреплять файлы к сообщениям
Вы можете скачивать файлы