(Classical) Saverio Mercadante - Flute Concertos Nos. 1, 2 & 4 - Patrick Gallois, Sinfonia Finlandia Jyvaskyla - 2013, FLAC (image+.cue) lossless


Статистика раздачи [Обновить пиров]
Размер:  261 MB   |    Зарегистрирован:  1 год 1 месяц   |    Скачан:  1 раз

Полного источника не было: 1 месяц 8 дней

Личеров:  2  [  0 KB/s  ]   Подробная статистика пиров
 
   
 
 
 

[Цитировать]

Saverio Mercadante - Flute Concertos Nos. 1, 2 & 4 - Patrick Gallois, Sinfonia Finlandia Jyväskylä
Жанр: Classical
Год издания диска: 2013
Издатель (лейбл): Naxos
Номер по каталогу: 8.572731
Дата записи: 2011
Аудиокодек: FLAC
Тип рипа: image+.cue
Битрейт аудио: lossless
Продолжительность: 57:34
Источник: собственный рип
Наличие сканов в содержимом раздачи: да
Треклист:
Saverio Mercadante (1795-1870)
[1]-[3] Flute Concerto No. 2 in E minor, Op. 57
[4]-[6] Flute Concerto No. 4 in G major
[7]-[9] Flute Concerto No. 1 in E major, Op. 49
Исполнители:
Patrick Gallois flute and conductor
Sinfonia Finlandia Jyväskylä

Лог создания рипа

Exact Audio Copy V1.0 beta 3 from 29. August 2011
EAC extraction logfile from 4. April 2014, 16:48
Patrick Gallois, Sinfonia Finlandia Jyväskylä / Mercadante - Flute Concertos Nos. 1, 2 & 4
Used drive : HL-DT-STDVDRRW GWA-4164B Adapter: 5 ID: 0
Read mode : SecureUtilize accurate stream : YesDefeat audio cache : YesMake use of C2 pointers : No
Read offset correction : 102Overread into Lead-In and Lead-Out : NoFill up missing offset samples with silence : YesDelete leading and trailing silent blocks : NoNull samples used in CRC calculations : YesUsed interface : Native Win32 interface for Win NT & 2000
Used output format : User Defined EncoderSelected bitrate : 896 kBit/sQuality : HighAdd ID3 tag : NoCommand line compressor : C:\Program Files\Exact Audio Copy\FLAC\FLAC.EXEAdditional command line options : -V -8 %source%
TOC of the extracted CD
Track | Start | Length | Start sector | End sector --------------------------------------------------------- 1 | 0:00.00 | 10:54.18 | 0 | 49067 2 | 10:54.18 | 3:42.14 | 49068 | 65731 3 | 14:36.32 | 6:22.62 | 65732 | 94443 4 | 20:59.19 | 7:59.21 | 94444 | 130389 5 | 28:58.40 | 3:28.00 | 130390 | 145989 6 | 32:26.40 | 4:27.38 | 145990 | 166052 7 | 36:54.03 | 10:11.54 | 166053 | 211931 8 | 47:05.57 | 4:58.23 | 211932 | 234304 9 | 52:04.05 | 5:27.70 | 234305 | 258899
Range status and errors
Selected range
Filename D:\temp\Music\Naxos_8.572731 - Mercadante - Flute Concertos Nos. 1, 2 & 4\Mercadante - Flute Concertos Nos. 1, 2 & 4.wav
Peak level 97.6 % Extraction speed 2.6 X Range quality 100.0 % Test CRC 4758736C Copy CRC 4758736C Copy OK
No errors occurred
AccurateRip summary
Track 1 not present in databaseTrack 2 not present in databaseTrack 3 not present in databaseTrack 4 not present in databaseTrack 5 not present in databaseTrack 6 not present in databaseTrack 7 not present in databaseTrack 8 not present in databaseTrack 9 not present in database
None of the tracks are present in the AccurateRip database
End of status report
==== Log checksum 4019091AC6B7204D7724F681A3CAFEFE26AD5E4FF57CF051FC866B87369058B3 ====
[teatrix.ru].t9943.torrent 
Торрент: Зарегистрирован [ 2015-10-25 20:37 ] · F7CB86FE9F6B4870B14895F874DB5B1942913FA9

Скачать .torrent

Скачать

22 KB

Статус: проверено
Скачан: 1 раз
Размер: 261 MB
terms.php



Быстрый ответ

Имя:

      
Для отправки сообщений необходимо включить JavaScript
Показать сообщения:    

Текущее время: 05-Дек 05:29

Часовой пояс: UTC + 3


Вы можете начинать темы
Вы можете отвечать на сообщения
Вы не можете редактировать свои сообщения
Вы не можете удалять свои сообщения
Вы не можете голосовать в опросах
Вы не можете прикреплять файлы к сообщениям
Вы можете скачивать файлы