(Classical) Edvard Grieg, Robert Schumann - Piano Concertos - Janne Mertanen, Gavle Symphony Orchestra, Hannu Koivula - 2013, FLAC (image+.cue) lossless


Статистика раздачи [Обновить пиров]
Размер:  231 MB   |    Зарегистрирован:  1 год 1 месяц   |    Скачан:  0 раз

Полного источника не было: Никогда

Личеров:  1  [  0 KB/s  ]   Подробная статистика пиров
 
   
 
 
 

[Цитировать]

Edvard Grieg, Robert Schumann - Piano Concertos - Janne Mertanen, Gävle Symphony Orchestra, Hannu Koivula
Жанр: Classical
Страна-производитель диска: Finland
Год издания диска: 2013
Издатель (лейбл): Alba Records
Номер по каталогу: ABCD 356
Дата записи: 2012
Аудиокодек: FLAC
Тип рипа: image+.cue
Битрейт аудио: lossless
Продолжительность: 61:10
Источник: собственный рип
Наличие сканов в содержимом раздачи: да
Треклист:
Edvard Grieg (1843-1907)
[1]-[3] Piano Concerto in A minor, Op.16 (1868)
Robert Schumann (1810-1856)
[4]-[6] Piano Concerto in A minor, Op.54 (1845)
Исполнители:
Janne Mertanen piano
Gävle Symphony Orchestra
Hannu Koivula
conductor

Лог создания рипа

Exact Audio Copy V1.0 beta 3 from 29. August 2011
EAC extraction logfile from 26. March 2014, 18:37
Janne Mertanen, Gävle Symphony Orchestra, Hannu Koivula / Grieg & Schumann - Piano Concertos
Used drive : HL-DT-STDVDRRW GWA-4164B Adapter: 5 ID: 0
Read mode : SecureUtilize accurate stream : YesDefeat audio cache : YesMake use of C2 pointers : No
Read offset correction : 102Overread into Lead-In and Lead-Out : NoFill up missing offset samples with silence : YesDelete leading and trailing silent blocks : NoNull samples used in CRC calculations : YesUsed interface : Native Win32 interface for Win NT & 2000
Used output format : User Defined EncoderSelected bitrate : 896 kBit/sQuality : HighAdd ID3 tag : NoCommand line compressor : C:\Program Files\Exact Audio Copy\FLAC\FLAC.EXEAdditional command line options : -V -8 %source%
TOC of the extracted CD
Track | Start | Length | Start sector | End sector --------------------------------------------------------- 1 | 0:00.00 | 13:18.59 | 0 | 59908 2 | 13:18.59 | 6:49.55 | 59909 | 90638 3 | 20:08.39 | 10:05.68 | 90639 | 136081 4 | 30:14.32 | 15:11.49 | 136082 | 204455 5 | 45:26.06 | 5:31.30 | 204456 | 229310 6 | 50:57.36 | 10:10.45 | 229311 | 275105
Range status and errors
Selected range
Filename D:\temp\Music\Grieg, Schumann - Piano Concertos - Janne Mertanen\Grieg & Schumann - Piano Concertos.wav
Peak level 95.7 % Extraction speed 3.0 X Range quality 100.0 % Test CRC 01F5D93E Copy CRC 01F5D93E Copy OK
No errors occurred
AccurateRip summary
Track 1 not present in databaseTrack 2 not present in databaseTrack 3 not present in databaseTrack 4 not present in databaseTrack 5 not present in databaseTrack 6 not present in database
None of the tracks are present in the AccurateRip database
End of status report
==== Log checksum 3F32673D70A24DB7EEE3AF355AEDDC0059FC29B3D7698A7B94CDEBB5CA9AFD93 ====
[teatrix.ru].t9944.torrent 
Торрент: Зарегистрирован [ 2015-10-25 20:37 ] · 12213374EBDBB51EBD942F1D1AA1FA569E128DDE

Скачать .torrent

Скачать

37 KB

Статус: проверено
Скачан: 0 раз
Размер: 231 MB
terms.php



Быстрый ответ

Имя:

      
Для отправки сообщений необходимо включить JavaScript
Показать сообщения:    

Текущее время: 11-Дек 11:05

Часовой пояс: UTC + 3


Вы можете начинать темы
Вы можете отвечать на сообщения
Вы не можете редактировать свои сообщения
Вы не можете удалять свои сообщения
Вы не можете голосовать в опросах
Вы не можете прикреплять файлы к сообщениям
Вы можете скачивать файлы