(Classical/Concerto/Violin) Шостакович - Концерт для скрипки с оркестром №1, №2 / Shostakovich - Violin Concerto 1 Op.77/99, 2 Op.129 (Лидия Мордкович / Lydia Mordkovitch, Scottish National Orchestra, Neeme Jarvi) - 1989, FLAC (image+.cue) lossless


Статистика раздачи [Обновить пиров]
Размер:  298 MB   |    Зарегистрирован:  1 год 1 месяц   |    Скачан:  0 раз

Полного источника не было: Никогда

Личеров:  1  [  0 KB/s  ]   Подробная статистика пиров
 
   
 
 
 

[Цитировать]

Д.Д.Шостакович - Концерты для скрипки с оркестром №1, №2 / Dmitri Shostakovich - Violin Concertos 1 Op.77/99, 2 Op.129 (Лидия Мордкович / Lydia Mordkovitch, Scottish National Orchestra, Neeme Järvi)
Жанр: Classical/Concerto/Violin
Страна-производитель диска: Австрия
Год издания диска: 1989
Издатель (лейбл): Chandos
Номер по каталогу: CHAN 8820
Дата записи: 1989
Аудиокодек: FLAC
Тип рипа: image+.cue
Битрейт аудио: lossless
Продолжительность: 69:22
Источник: собственный рип
Наличие сканов в содержимом раздачи: да
Треклист:
Дмитрий Шостакович / Dmitri Shostakovich (1906-1975)
Violin Concerto No. 1 in A minor Op.77/99 (1947—1948) 38:23
in A minor; a-Moll; la mineur
1 I Nocturne. Moderato 12:23
2 II Scherzo. Allegro 06:25
3 III Passacaglia. Andante 14:44
4 IV Burlesque. Allegro con brio 04:41
Violin Concerto No. 2 in C sharp major Op.129 (1967) 30:52
in C sharp minor; cis-Moll; ut dièse mineur
5 I Moderato 12:58
6 II Adagio 09:36
7 III Adagio - Allegro 08:13
Исполнители:
Лидия Мордкович / Lydia Mordkovitch violin
Royal Scottish National Orchestra
Neeme Järvi

Лог создания рипа

Exact Audio Copy V1.0 beta 3 from 29. August 2011
Отчёт EAC об извлечении, выполненном 8. июня 2014, 20:28
Lydia Mordkovitch, Scottish National Orchestra, Neeme Järvi / Shostakovich - Violin Concertos No.1 Op.99 & No.2 Op.129
Дисковод: HL-DT-STDVDRAM GU71N Adapter: 2 ID: 0
Режим чтения : ДостоверностьИспользование точного потока : ДаОтключение кэша аудио : ДаИспользование указателей C2 : Нет
Коррекция смещения при чтении : 6Способность читать области Lead-in и Lead-out : НетЗаполнение пропущенных сэмплов тишиной : ДаУдаление блоков с тишиной в начале и конце : НетПри вычислениях CRC использовались нулевые сэмплы : ДаИнтерфейс : Встроенный Win32-интерфейс для Win NT/2000
Выходной формат : Пользовательский кодировщикВыбранный битрейт : 1024 kBit/sКачество : ВысокийДобавление ID3-тега : НетУтилита сжатия : C:\Program Files (x86)\Exact Audio Copy\Flac\flac.exeДополнительные параметры : -8 -V -T "ALBUMARTIST=%albumartist%" -T "ALBUM=%albumtitle%" -T "DATE=%year%" -T "TRACKTOTAL=%numtracks%" -T "GENRE=%genre%" -T "COMMENT=%comment%" -T "PERFORMER=%albuminterpret%" -T "COMPOSER=%composer%" %source% -o %dest%
TOC извлечённого CD
Трек | Старт | Длительность | Начальный сектор | Конечный сектор --------------------------------------------------------------------- 1 | 0:00.00 | 12:29.50 | 0 | 56224 2 | 12:29.50 | 6:29.00 | 56225 | 85399 3 | 18:58.50 | 14:44.05 | 85400 | 151704 4 | 33:42.55 | 4:47.20 | 151705 | 173249 5 | 38:30.00 | 13:03.50 | 173250 | 232024 6 | 51:33.50 | 9:35.65 | 232025 | 275214 7 | 61:09.40 | 8:13.27 | 275215 | 312216
Характеристики диапазона извлечения и сообщения об ошибках
Выбранный диапазон
Имя файла H:\Rips\Shostakovich - Violin Concertos - Lydia Mordkovitch, Scottish National Orchestra, Neeme Jarvi CHAN 8820\Shostakovich - Violin Concertos No.1 Op.99 & No.2 Op.129.wav
Пиковый уровень 93.3 % Скорость извлечения 2.3 X Качество диапазона 100.0 % CRC теста 0D492251 CRC копии 0D492251 Копирование... OK
Ошибок не произошло
AccurateRip: сводка
Трек 1 : извлечено точно (доверие 20) [BA3E8870] (AR v2)Трек 2 : извлечено точно (доверие 20) [EEF4D494] (AR v2)Трек 3 : извлечено точно (доверие 19) [4C1BD535] (AR v2)Трек 4 : извлечено точно (доверие 20) [B2B82321] (AR v2)Трек 5 : извлечено точно (доверие 20) [9C9DACE2] (AR v2)Трек 6 : извлечено точно (доверие 20) [A64842CB] (AR v2)Трек 7 : извлечено точно (доверие 19) [72C590AD] (AR v2)
Все треки извлечены точно
Конец отчёта
==== Контрольная сумма отчёта A46387C5B360A911A6A18563C0AC20102622681BAAFBF2E31FA70DB51207BFA0 ====

Содержание индексной карты (.CUE)

REM GENRE ClassicalREM DATE 1989REM DISCID 47104207REM COMMENT "ExactAudioCopy v1.0b3"PERFORMER "Lydia Mordkovitch, Scottish National Orchestra, Neeme Jarvi"TITLE "Shostakovich - Violin Concertos No.1 Op.99 & No.2 Op.129"FILE "Shostakovich - Violin Concertos No.1 Op.99 & No.2 Op.129.flac" WAVE TRACK 01 AUDIO TITLE "Concerto No.1, Op.99 for Violin and Orchestra in A minor - I. Nocturne. Moderato" PERFORMER "Lydia Mordkovitch, Scottish National Orchestra, Neeme Jarvi" INDEX 01 00:00:00 TRACK 02 AUDIO TITLE "Concerto No.1, Op.99 for Violin and Orchestra in A minor - II. Scherzo. Allegro" PERFORMER "Lydia Mordkovitch, Scottish National Orchestra, Neeme Jarvi" INDEX 00 12:23:30 INDEX 01 12:29:50 TRACK 03 AUDIO TITLE "Concerto No.1, Op.99 for Violin and Orchestra in A minor - III. Passacaglia. Andante" PERFORMER "Lydia Mordkovitch, Scottish National Orchestra, Neeme Jarvi" INDEX 00 18:54:35 INDEX 01 18:58:50 TRACK 04 AUDIO TITLE "Concerto No.1, Op.99 for Violin and Orchestra in A minor - IV. Burlesque. Allegro con brio" PERFORMER "Lydia Mordkovitch, Scottish National Orchestra, Neeme Jarvi" INDEX 01 33:42:55 TRACK 05 AUDIO TITLE "Concerto No.2, Op.129 for Violin and Orchestra in C sharp minor - I. Moderato" PERFORMER "Lydia Mordkovitch, Scottish National Orchestra, Neeme Jarvi" INDEX 00 38:23:25 INDEX 01 38:30:00 TRACK 06 AUDIO TITLE "Concerto No.2, Op.129 for Violin and Orchestra in C sharp minor - II. Adagio" PERFORMER "Lydia Mordkovitch, Scottish National Orchestra, Neeme Jarvi" INDEX 00 51:28:35 INDEX 01 51:33:50 TRACK 07 AUDIO TITLE "Concerto No.2, Op.129 for Violin and Orchestra in C sharp minor - III. Adagio - Allegro" PERFORMER "Lydia Mordkovitch, Scottish National Orchestra, Neeme Jarvi" INDEX 01 61:09:40
Доп. информация: Первый скрипичный концерт здесь проходит как Op. 99
Wikipedia писал(а):Концерт иногда пронумерован Opus 99, хотя из-за задержки между сочинением и исполнением он был первоначально указан в качестве Opus 77. Из-за неопределенности политического климата Шостакович отложил исполнение концерта до смерти Сталина, а затем выпустил концерт как Opus 99. По этой причине в Opus 77 затем выделены Три пьесы для оркестра - произведение мало известное за пределами России и исследователей творчества Шостаковича.
https://en.wikipedia.org/wiki/Violin_Concerto_No._1...h%29#Opus_Number
[teatrix.ru].t9945.torrent 
Торрент: Зарегистрирован [ 2015-10-25 20:37 ] · A01F66D009353DDD5CEC2BC1085C2AB84C8B51F1

Скачать .torrent

Скачать

48 KB

Статус: проверено
Скачан: 0 раз
Размер: 298 MB
terms.php



Быстрый ответ

Имя:

      
Для отправки сообщений необходимо включить JavaScript
Показать сообщения:    

Текущее время: 03-Дек 05:24

Часовой пояс: UTC + 3


Вы можете начинать темы
Вы можете отвечать на сообщения
Вы не можете редактировать свои сообщения
Вы не можете удалять свои сообщения
Вы не можете голосовать в опросах
Вы не можете прикреплять файлы к сообщениям
Вы можете скачивать файлы