(Classical/Piano) Concertos hollandais pour piano - C.A.Fodor, J.W.Wilms - Concertos for Pianoforte/Harpsichord; J.Schmitt - Quartet for Piano, Flute, Violin & Cello (Arthur Schoonderwoerd, Cristofori) Alpha 052 - 2004, FLAC (image+.cue) lossless


Статистика раздачи [Обновить пиров]
Размер:  338 MB   |    Зарегистрирован:  1 год 1 месяц   |    Скачан:  0 раз

Полного источника не было: Никогда

Личеров:  1  [  0 KB/s  ]   Подробная статистика пиров
 
   
 
 
 

[Цитировать]

Concertos hollandais pour piano - C.A.Fodor, J.W.Wilms - Concertos for Pianoforte; J.Schmitt - Quartet for Piano, Flute, Violin & Cello - Arthur Schoonderwoerd, Cristofori
Жанр: Classical/Concerto/Piano
Страна-производитель диска: EU
Год издания диска: 2004
Издатель (лейбл): Alpha
Номер по каталогу: 052
Дата записи: 2002
Аудиокодек: FLAC
Тип рипа: image+.cue
Битрейт аудио: lossless
Продолжительность: 66:16
Источник: скачано с
сайт-источник/ник/другое: блог Odeonmusic
Наличие сканов в содержимом раздачи: да
Треклист:
Johann Wilhelm Wilms (1772-1847)
Concerto for harpsichord or pianoforte in E major Op. 3
01. Allegro [0:12:47.03]
02. Poco adagio [0:06:54.01]
03. Rondo allegro [0:07:03.01]
Joseph Schmitt (1734-1791)
Quartet for pianoforte, transverse flute, violin & cello in C major Op. 9 No. 1
04. Allegro moderato [0:04:47.05]
05. Adagio [0:05:33.58]
06. Allegro molto [0:02:18.65]
Carolus Antonius Fodor (1768-1846)
Concerto for harpsichord or pianoforte in g minor Op. 12
07. Allegro con fuoco [0:13:05.10]
08. Adagio non tanto [0:05:40.64]
09. Rondo alla turque [0:08:04.30]
Исполнители:
Arthur Schoonderwoerd (pianoforte)
Ensemble Cristofori

Лог создания рипа

Exact Audio Copy V1.0 beta 3 from 29. August 2011
EAC extraction logfile from 3. June 2014, 10:54
Arthur Schoonderwoerd / Wilms, Schmitt, Fodor - Piano Concertos - Schoonderwoerd
Used drive : TSSTcorpCDDVDW SH-222BB Adapter: 2 ID: 1
Read mode : SecureUtilize accurate stream : YesDefeat audio cache : YesMake use of C2 pointers : No
Read offset correction : 6Overread into Lead-In and Lead-Out : NoFill up missing offset samples with silence : YesDelete leading and trailing silent blocks : NoNull samples used in CRC calculations : YesUsed interface : Native Win32 interface for Win NT & 2000
Used output format : User Defined EncoderSelected bitrate : 896 kBit/sQuality : HighAdd ID3 tag : NoCommand line compressor : C:\Program Files\Exact Audio Copy\FLAC\FLAC.EXEAdditional command line options : -8 -V -T "TITLE=%title%" -T "ARTIST=%artist%" -T "ALBUMARTIST=%albumartist%" -T "ALBUM=%albumtitle%" -T "DATE=%year%" -T "TRACKNUMBER=%tracknr%" -T "TRACKTOTAL=%numtracks%" -T "GENRE=%genre%" -T "COMMENT=%comment%" -T "PERFORMER=%albuminterpret%" -T "COMPOSER=%composer%" %source% -o %dest%
TOC of the extracted CD
Track | Start | Length | Start sector | End sector --------------------------------------------------------- 1 | 0:00.00 | 12:47.03 | 0 | 57527 2 | 12:47.03 | 6:54.01 | 57528 | 88578 3 | 19:41.04 | 7:03.01 | 88579 | 120304 4 | 26:44.05 | 4:47.05 | 120305 | 141834 5 | 31:31.10 | 5:33.58 | 141835 | 166867 6 | 37:04.68 | 2:18.65 | 166868 | 177282 7 | 39:23.58 | 13:05.10 | 177283 | 236167 8 | 52:28.68 | 5:40.64 | 236168 | 261731 9 | 58:09.57 | 8:04.30 | 261732 | 298061
Range status and errors
Selected range
Filename E:\4000\[4270] Wilms, Schmitt, Fodor – Piano Concertos – Schoonderwoerd\Wilms, Schmitt, Fodor - Piano Concertos - Schoonderwoerd.wav
Peak level 99.2 % Extraction speed 7.2 X Range quality 100.0 % Test CRC FF567F20 Copy CRC FF567F20 Copy OK
No errors occurred
AccurateRip summary
Track 1 accurately ripped (confidence 2) [65A3D1AE] (AR v2)Track 2 accurately ripped (confidence 2) [405B9346] (AR v2)Track 3 accurately ripped (confidence 2) [997AB18A] (AR v2)Track 4 accurately ripped (confidence 2) [DBE0B0E0] (AR v2)Track 5 accurately ripped (confidence 2) [B51BCDE4] (AR v2)Track 6 accurately ripped (confidence 2) [2E5A9756] (AR v2)Track 7 accurately ripped (confidence 2) [0FABC710] (AR v2)Track 8 accurately ripped (confidence 2) [21B30788] (AR v2)Track 9 accurately ripped (confidence 2) [844589FB] (AR v2)
All tracks accurately ripped
End of status report
==== Log checksum 1C7F10DA456D18924749911F3890AC7E711EE3CF43602A0F562F026F05337895 ====

Содержание индексной карты (.CUE)

REM GENRE ClassicalREM DISCID 7D0F8609REM DATE 2002REM COMMENT "ExactAudioCopy v1.0b3"PERFORMER "Arthur Schoonderwoerd, Cristofori"TITLE "Wilms, Schmitt, Fodor - Piano Concertos"FILE "Wilms, Schmitt, Fodor - Piano Concertos - Schoonderwoerd.flac" WAVE TRACK 01 AUDIO TITLE "Wilms - Concerto pour clavecin en mi maj op. 3 - Allegro" PERFORMER "Arthur Schoonderwoerd, Cristofori" INDEX 01 00:00:00 TRACK 02 AUDIO TITLE "Wilms - Concerto pour clavecin en mi maj op. 3 - Poco adagio" PERFORMER "Arthur Schoonderwoerd, Cristofori" INDEX 00 12:44:70 INDEX 01 12:47:03 TRACK 03 AUDIO TITLE "Wilms - Concerto pour clavecin en mi maj op. 3 - Rondo allegro" PERFORMER "Arthur Schoonderwoerd, Cristofori" INDEX 01 19:41:04 TRACK 04 AUDIO TITLE "Schmitt - Quatuor op. 9 n. 1 - Allegro moderato" PERFORMER "Arthur Schoonderwoerd, Cristofori" INDEX 00 26:40:03 INDEX 01 26:44:05 TRACK 05 AUDIO TITLE "Schmitt - Quatuor op. 9 n. 1 - Adagio" PERFORMER "Arthur Schoonderwoerd, Cristofori" INDEX 00 31:29:02 INDEX 01 31:31:10 TRACK 06 AUDIO TITLE "Schmitt - Quatuor op. 9 n. 1 - Allegro molto" PERFORMER "Arthur Schoonderwoerd, Cristofori" INDEX 01 37:04:68 TRACK 07 AUDIO TITLE "Fodor - Concerto pour clavecin en sol min. op. 12 - Allegro con fuoco" PERFORMER "Arthur Schoonderwoerd, Cristofori" INDEX 00 39:21:15 INDEX 01 39:23:58 TRACK 08 AUDIO TITLE "Fodor - Concerto pour clavecin en sol min. op. 12 - Adagio non tanto" PERFORMER "Arthur Schoonderwoerd, Cristofori" INDEX 00 52:26:14 INDEX 01 52:28:68 TRACK 09 AUDIO TITLE "Fodor - Concerto pour clavecin en sol min. op. 12 - Rondo alla turque" PERFORMER "Arthur Schoonderwoerd, Cristofori" INDEX 01 58:09:57
[teatrix.ru].t9946.torrent 
Торрент: Зарегистрирован [ 2015-10-25 20:37 ] · 320D7B32DCB507056BFF70407DDD008E3C081033

Скачать .torrent

Скачать

55 KB

Статус: проверено
Скачан: 0 раз
Размер: 338 MB
terms.php



Быстрый ответ

Имя:

      
Для отправки сообщений необходимо включить JavaScript
Показать сообщения:    

Текущее время: 10-Дек 02:11

Часовой пояс: UTC + 3


Вы можете начинать темы
Вы можете отвечать на сообщения
Вы не можете редактировать свои сообщения
Вы не можете удалять свои сообщения
Вы не можете голосовать в опросах
Вы не можете прикреплять файлы к сообщениям
Вы можете скачивать файлы