(Classical/Concerto/Piano) Wolfgang Amadeus Mozart - Piano Concerto No. 5 KV 175, Ah, lo previdi KV 272 (Arthur Schoonderwoerd, Johannette Zomer, Cristofori) - 2014, FLAC (tracks+.cue) lossless


Статистика раздачи [Обновить пиров]
Размер:  299 MB   |    Зарегистрирован:  1 год 1 месяц   |    Скачан:  0 раз

Полного источника не было: Никогда

Личеров:  1  [  0 KB/s  ]   Подробная статистика пиров
 
   
 
 
 

[Цитировать]

Wolfgang Amadeus Mozart - Piano Concerto No. 5 KV 175, Ah, lo previdi KV 272 - Arthur Schoonderwoerd, Johannette Zomer, Cristofori
Жанр: Classical/Concerto/Piano
Страна-производитель диска: Голландия
Год издания диска: 2014
Издатель (лейбл): ACCENT
Номер по каталогу: ACC 24289
Дата записи: 2013
Аудиокодек: FLAC
Тип рипа: tracks+.cue
Битрейт аудио: lossless
Продолжительность: 57:30
Источник: скачано с
сайт-источник/ник/другое: avaxhome
Наличие сканов в содержимом раздачи: да
Треклист:
Wolfgang Amadeus Mozart (1756-1791)
Concerto for Harpsichord & Orchestra in D major, KV 175 (Salzburg, 1773)
1. I. Allegro 8:12
2. II. Andante ma un poco adagio 6:59
3. III. Allegro 5:08
Ah, lo previdi! KV 272 (Salzburg, 1776)
Recitative, Aria & Cavatina for Soprano & Orchestra
4. I. Recitative - Ah, lo previdi! 1:13
5. II. Aria - Ah, t'invola 3:27
6. III. Recitative - Misera! Misera! 2:54
7. IV. Cavatina - Deh, non varcar 4:08
Concerto for Fortepiano & Orchestra in D major, KV 175 (Wien, 1782)
8. I. Allegro 8:09
9. II. Andante ma un poco adagio 7:13
10. III. Rondo, Allegretto grazioso (KV 382) 9:56
Исполнители:
Arthur Schoonderwoerd
harpsichord, fortepiano & musical direction
italian harpsichord after Giusti (1720), replica by Geert Karman (G-d''')
tangent piano after Spaeth & Schmahl (1770), replica by William Jurgenson (F-f''')
Johannette Zomer, soprano
Cristofori
Emilio Moreno violin I & concertmaster
Corrado Lepore violin II
Marten Boeken viola
François Michel violoncello
Szilard Chereji double bass
Charles Zebley flute
Vivian Berg, Eric Douchy oboe
Flora Padar bassoon
Balduin Wetter, Dominik Bischof horn
Joël Lahens, Amélie Pialoux trumpet
Philip Tarr timpani

Лог создания рипа

Exact Audio Copy V1.0 beta 3 from 29. August 2011
EAC extraction logfile from 14. March 2014, 12:55
Arthur Schoonderwoerd / Mozart - Piano Concertos Vol. III
Used drive : PLDS BD-RE DH-8B2SH Adapter: 0 ID: 0
Read mode : SecureUtilize accurate stream : YesDefeat audio cache : YesMake use of C2 pointers : No
Read offset correction : 6Overread into Lead-In and Lead-Out : NoFill up missing offset samples with silence : YesDelete leading and trailing silent blocks : NoNull samples used in CRC calculations : YesUsed interface : Native Win32 interface for Win NT & 2000Gap handling : Appended to previous track
Used output format : User Defined EncoderSelected bitrate : 768 kBit/sQuality : HighAdd ID3 tag : NoCommand line compressor : C:\Program Files (x86)\Exact Audio Copy\FLAC\FLAC.EXEAdditional command line options : -6 -V -T "ARTIST=%artist%" -T "TITLE=%title%" -T "ALBUM=%albumtitle%" -T "DATE=%year%" -T "TRACKNUMBER=%tracknr%" -T "GENRE=%genre%" -T "COMMENT=%comment%" -T "BAND=%albuminterpret%" -T "ALBUMARTIST=%albuminterpret%" -T "COMPOSER=%composer%" %haslyrics%--tag-from-file=LYRICS="%lyricsfile%"%haslyrics% -T "DISCNUMBER=%cdnumber%" -T "TOTALDISCS=%totalcds%" -T "TOTALTRACKS=%numtracks%" %hascover%--picture="%coverfile%"%hascover% %source% -o %dest%
TOC of the extracted CD
Track | Start | Length | Start sector | End sector --------------------------------------------------------- 1 | 0:00.00 | 8:13.25 | 0 | 36999 2 | 8:13.25 | 6:59.28 | 37000 | 68452 3 | 15:12.53 | 5:12.06 | 68453 | 91858 4 | 20:24.59 | 1:13.36 | 91859 | 97369 5 | 21:38.20 | 3:27.55 | 97370 | 112949 6 | 25:06.00 | 2:53.05 | 112950 | 125929 7 | 27:59.05 | 4:11.41 | 125930 | 144795 8 | 32:10.46 | 8:10.08 | 144796 | 181553 9 | 40:20.54 | 7:13.16 | 181554 | 214044 10 | 47:33.70 | 9:56.06 | 214045 | 258750
Track 1
Filename C:\EAC\01 Concerto for Harpsichord & Orchestra in D major, K175 I. Allegro.wav
Pre-gap length 0:00:02.00
Peak level 98.2 % Extraction speed 4.5 X Track quality 99.9 % Test CRC 9AB9DE7C Copy CRC 9AB9DE7C Track not present in AccurateRip database Copy OK
Track 2
Filename C:\EAC\02 Concerto for Harpsichord & Orchestra in D major, K175 II. Andante ma un poco adagio.wav
Peak level 81.5 % Extraction speed 5.8 X Track quality 100.0 % Test CRC 16E31794 Copy CRC 16E31794 Track not present in AccurateRip database Copy OK
Track 3
Filename C:\EAC\03 Concerto for Harpsichord & Orchestra in D major, K175 III. Allegro.wav
Peak level 96.6 % Extraction speed 5.4 X Track quality 99.9 % Test CRC B839C694 Copy CRC B839C694 Track not present in AccurateRip database Copy OK
Track 4
Filename C:\EAC\04 Recitative, Aria & Cavatina for Soprano & Orchestra, K272 I. Recitative - Ah, lo prevedi.wav
Peak level 86.3 % Extraction speed 4.9 X Track quality 100.0 % Test CRC 606B738D Copy CRC 606B738D Track not present in AccurateRip database Copy OK
Track 5
Filename C:\EAC\05 Recitative, Aria & Cavatina for Soprano & Orchestra, K272 I. Aria - Ah, t'invola.wav
Peak level 94.2 % Extraction speed 6.4 X Track quality 100.0 % Test CRC CFC03AE0 Copy CRC CFC03AE0 Track not present in AccurateRip database Copy OK
Track 6
Filename C:\EAC\06 Recitative, Aria & Cavatina for Soprano & Orchestra, K272 III. Recitative - Misera misera.wav
Peak level 80.2 % Extraction speed 6.5 X Track quality 100.0 % Test CRC 1A6152EA Copy CRC 1A6152EA Track not present in AccurateRip database Copy OK
Track 7
Filename C:\EAC\07 Recitative, Aria & Cavatina for Soprano & Orchestra, K272 IV. Cavatina - Deh, non varcar.wav
Peak level 88.5 % Extraction speed 7.2 X Track quality 100.0 % Test CRC 4FBFFB19 Copy CRC 4FBFFB19 Track not present in AccurateRip database Copy OK
Track 8
Filename C:\EAC\08 Concerto for Fortpiano & Orchestra in D major, K175 I. Allegro.wav
Peak level 97.9 % Extraction speed 8.1 X Track quality 100.0 % Test CRC 295A23F3 Copy CRC 295A23F3 Track not present in AccurateRip database Copy OK
Track 9
Filename C:\EAC\09 Concerto for Fortpiano & Orchestra in D major, K175 I. Andante ma un poco adagio.wav
Peak level 68.3 % Extraction speed 7.6 X Track quality 99.9 % Test CRC 83AFBC4E Copy CRC 83AFBC4E Track not present in AccurateRip database Copy OK
Track 10
Filename C:\EAC\10 Concerto for Fortpiano & Orchestra in D major, K175 III. Rondo, Allegretto grazioso K382.wav
Peak level 95.3 % Extraction speed 9.4 X Track quality 100.0 % Test CRC 5BE8F19C Copy CRC 5BE8F19C Track not present in AccurateRip database Copy OK
None of the tracks are present in the AccurateRip database
No errors occurred
End of status report
==== Log checksum 82F6AB586613DC99B96F9A42DB8DE41C7C504196F23150E59AA2F74C1D2EE7D4 ====

Содержание индексной карты (.CUE)

REM GENRE ClassicalREM DATE 2014REM DISCID 7C0D7A0AREM COMMENT "ExactAudioCopy v1.0b3"CATALOG 4015023242890PERFORMER "Arthur Schoonderwoerd, Cristofori"TITLE "Mozart - Piano Concertos Vol. III"FILE "01 Concerto for Harpsichord & Orchestra in D major, K175 I. Allegro.flac" WAVE TRACK 01 AUDIO TITLE "Concerto for Harpsichord & Orchestra in D major, K175 I. Allegro" PERFORMER "Arthur Schoonderwoerd, Cristofori" ISRC DECP61306001 INDEX 01 00:00:00FILE "02 Concerto for Harpsichord & Orchestra in D major, K175 II. Andante ma un poco adagio.flac" WAVE TRACK 02 AUDIO TITLE "Concerto for Harpsichord & Orchestra in D major, K175 II. Andante ma un poco adagio" PERFORMER "Arthur Schoonderwoerd, Cristofori" ISRC DECP61306002 INDEX 01 00:00:00FILE "03 Concerto for Harpsichord & Orchestra in D major, K175 III. Allegro.flac" WAVE TRACK 03 AUDIO TITLE "Concerto for Harpsichord & Orchestra in D major, K175 III. Allegro" PERFORMER "Arthur Schoonderwoerd, Cristofori" ISRC DECP61306003 INDEX 01 00:00:00FILE "04 Recitative, Aria & Cavatina for Soprano & Orchestra, K272 I. Recitative - Ah, lo previdi.flac" WAVE TRACK 04 AUDIO TITLE "Recitative, Aria & Cavatina for Soprano & Orchestra, K272 I. Recitative - Ah, lo previdi!" PERFORMER "Johannette Zomer" ISRC DECP61306004 INDEX 01 00:00:00FILE "05 Recitative, Aria & Cavatina for Soprano & Orchestra, K272 II. Aria - Ah, t'invola.flac" WAVE TRACK 05 AUDIO TITLE "Recitative, Aria & Cavatina for Soprano & Orchestra, K272 II. Aria - Ah, t'invola" PERFORMER "Johannette Zomer" ISRC DECP61306005 INDEX 01 00:00:00FILE "06 Recitative, Aria & Cavatina for Soprano & Orchestra, K272 III. Recitative - Misera misera.flac" WAVE TRACK 06 AUDIO TITLE "Recitative, Aria & Cavatina for Soprano & Orchestra, K272 III. Recitative - Misera! Misera!" PERFORMER "Johannette Zomer" ISRC DECP61306006 INDEX 01 00:00:00FILE "07 Recitative, Aria & Cavatina for Soprano & Orchestra, K272 IV. Cavatina - Deh, non varcar.flac" WAVE TRACK 07 AUDIO TITLE "Recitative, Aria & Cavatina for Soprano & Orchestra, K272 IV. Cavatina - Deh, non varcar" PERFORMER "Johannette Zomer" ISRC DECP61306007 INDEX 01 00:00:00FILE "08 Concerto for Fortepiano & Orchestra in D major, K175 I. Allegro.flac" WAVE TRACK 08 AUDIO TITLE "Concerto for Fortepiano & Orchestra in D major, K175 I. Allegro" PERFORMER "Arthur Schoonderwoerd, Cristofori" ISRC DECP61306008 INDEX 01 00:00:00FILE "09 Concerto for Fortepiano & Orchestra in D major, K175 II. Andante ma un poco adagio.flac" WAVE TRACK 09 AUDIO TITLE "Concerto for Fortepiano & Orchestra in D major, K175 II. Andante ma un poco adagio" PERFORMER "Arthur Schoonderwoerd, Cristofori" ISRC DECP61306009 INDEX 01 00:00:00FILE "10 Concerto for Fortepiano & Orchestra in D major, K175 III. Rondo, Allegretto grazioso K382.flac" WAVE TRACK 10 AUDIO TITLE "Concerto for Fortepiano & Orchestra in D major, K175 III. Rondo, Allegretto grazioso K382" PERFORMER "Arthur Schoonderwoerd, Cristofori" ISRC DECP61306010 INDEX 01 00:00:00
[teatrix.ru].t9947.torrent 
Торрент: Зарегистрирован [ 2015-10-25 20:37 ] · 2EE857F7414A4F531B56DC66AFF2DCBCEFB05644

Скачать .torrent

Скачать

50 KB

Статус: проверено
Скачан: 0 раз
Размер: 299 MB
terms.php



Быстрый ответ

Имя:

      
Для отправки сообщений необходимо включить JavaScript
Показать сообщения:    

Текущее время: 04-Дек 13:16

Часовой пояс: UTC + 3


Вы можете начинать темы
Вы можете отвечать на сообщения
Вы не можете редактировать свои сообщения
Вы не можете удалять свои сообщения
Вы не можете голосовать в опросах
Вы не можете прикреплять файлы к сообщениям
Вы можете скачивать файлы