(Classical) The Hyperion Romantic Piano Concerto – Vol. 61: Dohler & Dreyschock (Shelley) - 2013, FLAC (image+.cue) lossless


Статистика раздачи [Обновить пиров]
Размер:  209 MB   |    Зарегистрирован:  1 год 1 месяц   |    Скачан:  0 раз

Полного источника не было: Никогда

Личеров:  1  [  0 KB/s  ]   Подробная статистика пиров
 
   
 
 
 

[Цитировать]

The Hyperion Romantic Piano Concerto – Vol. 61: Döhler & Dreyschock (Shelley)
Жанр: Classical
Страна-производитель диска: Франция
Год издания диска: 2013
Издатель (лейбл): Hyperion
Номер по каталогу: CDA67950
Дата записи: 23 — 26 июля 2012 г., Хобарт.
Аудиокодек: FLAC
Тип рипа: image+.cue
Битрейт аудио: lossless
Продолжительность: 00:56:07
Источник: odeonmusic
Наличие сканов в содержимом раздачи: да
Треклист:
(Шарль?) Теодор фон Делер (1814 — 1856).
Фортепианный концерт A-dur, op. 7 (1836).
01. I. Maestoso [13:44].
02. II. Adagio. — Cadenza. Presto. — [04:09].
03. III. Allegretto [10:35].
Александр Дрейшок (1818 — 1869).
Концертная пьеса c-moll для фортепиано с оркестром, op. 27 (1845?).
04. Allegro maestoso [16:42].
«Приветствие Вене», блестящее рондо для фортепиано с оркестром, op. 32 (1846?; оркестровка реконструирована по версии для фортепиано и струнных).
05. Интродукция. Tempo di marcia. — [04:17].
06. Рондо. Allegro con moto [06:38].
Исполнители:
Howard Shelley (фортепиано и дирижер).
Tasmanian Symphony Orchestra.

Лог создания рипа

Exact Audio Copy V1.0 beta 3 from 29. August 2011
EAC extraction logfile from 12. September 2013, 12:54
Howard Shelley / Döhler, Dreyschock - Works for Piano and Orchestra - Shelley (Romantic Piano Concerto - 61)
Used drive : TSSTcorpCDDVDW SH-222BB Adapter: 2 ID: 1
Read mode : SecureUtilize accurate stream : YesDefeat audio cache : YesMake use of C2 pointers : No
Read offset correction : 6Overread into Lead-In and Lead-Out : NoFill up missing offset samples with silence : YesDelete leading and trailing silent blocks : NoNull samples used in CRC calculations : YesUsed interface : Native Win32 interface for Win NT & 2000
Used output format : User Defined EncoderSelected bitrate : 1024 kBit/sQuality : HighAdd ID3 tag : NoCommand line compressor : C:\Program Files\Exact Audio Copy\Flac\flac.exeAdditional command line options : -8 -V -T "TITLE=%title%" -T "ARTIST=%artist%" -T "ALBUMARTIST=%albumartist%" -T "ALBUM=%albumtitle%" -T "DATE=%year%" -T "TRACKNUMBER=%tracknr%" -T "TRACKTOTAL=%numtracks%" -T "GENRE=%genre%" -T "COMMENT=%comment%" -T "PERFORMER=%albuminterpret%" -T "COMPOSER=%composer%" %source% -o %dest%
TOC of the extracted CD
Track | Start | Length | Start sector | End sector --------------------------------------------------------- 1 | 0:00.00 | 13:43.63 | 0 | 61787 2 | 13:43.63 | 4:08.74 | 61788 | 80461 3 | 17:52.62 | 10:34.61 | 80462 | 128072 4 | 28:27.48 | 16:42.11 | 128073 | 203233 5 | 45:09.59 | 4:16.62 | 203234 | 222495 6 | 49:26.46 | 6:38.29 | 222496 | 252374
Range status and errors
Selected range
Filename G:\Ripped general\[8566] Döhler, Dreyschock – Works for Piano and Orchestra – Shelley (Romantic Piano Concerto – 61)\Döhler, Dreyschock - Works for Piano and Orchestra - Shelley (Romantic Piano Concerto - 61).wav
Peak level 100.0 % Extraction speed 6.9 X Range quality 100.0 % Test CRC AE0278C6 Copy CRC AE0278C6 Copy OK
No errors occurred
AccurateRip summary
Track 1 not present in databaseTrack 2 not present in databaseTrack 3 not present in databaseTrack 4 not present in databaseTrack 5 not present in databaseTrack 6 not present in database
None of the tracks are present in the AccurateRip database
End of status report

Содержание индексной карты (.CUE)

REM GENRE ConcertoREM DATE 2013REM DISCID 520D2506REM COMMENT "ExactAudioCopy v1.0b3"PERFORMER "Howard Shelley"TITLE "Dohler & Dreyschock – Works for Piano and Orchestra – Howard Shelley"FILE "Dohler & Dreyschock – Works for Piano and Orchestra – Howard Shelley.flac" WAVE TRACK 01 AUDIO TITLE "Dohler - Piano Concerto in A major, Op. 7 (1836) - I. Maestoso" PERFORMER "Howard Shelley" INDEX 01 00:00:00 TRACK 02 AUDIO TITLE "Dohler - Piano Concerto in A major, Op. 7 (1836) - II. Adagio -" PERFORMER "Howard Shelley" INDEX 01 13:43:63 TRACK 03 AUDIO TITLE "Dohler - Piano Concerto in A major, Op. 7 (1836) - III. Allegretto" PERFORMER "Howard Shelley" INDEX 01 17:52:62 TRACK 04 AUDIO TITLE "Dreyschock - Morceau de concert in C minor for piano & orchestra, Op. 27 (1845)" PERFORMER "Howard Shelley" INDEX 00 28:14:74 INDEX 01 28:27:48 TRACK 05 AUDIO TITLE "Dreyschock - Salut a Vienne, rondo brillant for piano & orchestra, Op. 32 (1846) - Introduzione. Tempo di marcia -" PERFORMER "Howard Shelley" INDEX 00 44:58:65 INDEX 01 45:09:59 TRACK 06 AUDIO TITLE "Dreyschock - Salut a Vienne, rondo brillant for piano & orchestra, Op. 32 (1846) - Rondo. Allegro con moto" PERFORMER "Howard Shelley" INDEX 01 49:26:46

Уточненный вариант индексной карты (.CUE)

REM GENRE ConcertoREM DATE 2013REM DISCID 520D2506REM COMMENT "ExactAudioCopy v1.0b3"PERFORMER "Howard Shelley"TITLE "Dohler & Dreyschock – Works for Piano and Orchestra – Howard Shelley"FILE "Dohler & Dreyschock – Works for Piano and Orchestra – Howard Shelley.flac" WAVE TRACK 01 AUDIO TITLE "Dohler - Piano Concerto in A major, Op. 7 (1836) - I. Maestoso" PERFORMER "Howard Shelley" INDEX 01 00:00:00 TRACK 02 AUDIO TITLE "Dohler - Piano Concerto in A major, Op. 7 (1836) - II. Adagio -" PERFORMER "Howard Shelley" INDEX 00 13:42:17 INDEX 01 13:43:63 TRACK 03 AUDIO TITLE "Dohler - Piano Concerto in A major, Op. 7 (1836) - III. Allegretto" PERFORMER "Howard Shelley" INDEX 01 17:53:00 TRACK 04 AUDIO TITLE "Dreyschock - Morceau de concert in C minor for piano & orchestra, Op. 27 (1845)" PERFORMER "Howard Shelley" INDEX 00 28:14:74 INDEX 01 28:27:48 TRACK 05 AUDIO TITLE "Dreyschock - Salut a Vienne, rondo brillant for piano & orchestra, Op. 32 (1846) - Introduzione. Tempo di marcia -" PERFORMER "Howard Shelley" INDEX 00 44:58:65 INDEX 01 45:09:59 TRACK 06 AUDIO TITLE "Dreyschock - Salut a Vienne, rondo brillant for piano & orchestra, Op. 32 (1846) - Rondo. Allegro con moto" PERFORMER "Howard Shelley" INDEX 01 49:26:59 INDEX 02 55:56:33
[teatrix.ru].t9948.torrent 
Торрент: Зарегистрирован [ 2015-10-25 20:37 ] · 62F5D21076F10BC126627756B2999EEEAAAA8571

Скачать .torrent

Скачать

18 KB

Статус: проверено
Скачан: 0 раз
Размер: 209 MB
terms.php



Быстрый ответ

Имя:

      
Для отправки сообщений необходимо включить JavaScript
Показать сообщения:    

Текущее время: 06-Дек 11:15

Часовой пояс: UTC + 3


Вы можете начинать темы
Вы можете отвечать на сообщения
Вы не можете редактировать свои сообщения
Вы не можете удалять свои сообщения
Вы не можете голосовать в опросах
Вы не можете прикреплять файлы к сообщениям
Вы можете скачивать файлы