(Classical, Orchestral, Keyboard, Authentic) Carl Philipp Emanuel Bach - Keyboard Concertos. Vol. 4 [Concerto Armonico, Peter Szuts, Miklos Spanyi], BIS 1997, FLAC (image+.cue), lossless


Статистика раздачи [Обновить пиров]
Размер:  377 MB   |    Зарегистрирован:  1 год 1 месяц   |    Скачан:  0 раз

Полного источника не было: Никогда

Личеров:  1  [  0 KB/s  ]   Подробная статистика пиров
 
   
 
 
 

[Цитировать]

Carl Philipp Emanuel Bach
Concerti per tastiera. Tomo Quarto.
H. 412 [Wq 9], H. 416 [Wq 13], H. 420 [Wq 17]

Концерты для клавира. Том Четвертый.-- Жанр: Classical, Orchestral, Keyboard, Authentic
Страна-производитель диска: Austria
Год издания: 1997
Лейбл: BIS
Номер в каталоге: BIS-CD-768
Аудиокодек: FLAC
Тип рипа: image+.cue
Битрейт аудио: lossless
Продолжительность: 01:05:53
Наличие сканов: booklet [jpeg+pdf]
Источник: ODEON
Concerto Armonico
Péter Szűts direttore artistico
Miklós Spányi cembalista, pianista e direttore artistico

Треклист

01. H. 412 [Wq 9] - Concerto in Sol maggiore per cembalo, archi e basso continuo - I. Allegro [00:08:43]
02. II. Adagio [00:06:51]
03. III. Allegro assai [00:07:07]
04. H. 420 [Wq 17] - Concerto in Re minore per cembalo, archi e basso continuo - I. Allegro [00:08:06]
05. II. Un poco adagio [00:07:12]
06. III. Allegro [00:07:18]
07. H. 416 [Wq 13] - Concerto in Re maggiore per fortepiano, archi e basso continuo - I. Allegro [00:07:36]
08. II. Un poco andante [00:07:06]
09. III. Allegro assai [00:05:54]

LOG EAC

Exact Audio Copy V1.0 beta 3 from 29. August 2011
EAC extraction logfile from 9. March 2014, 19:21
Miklós Spányi / C.P.E. Bach - Keyboard Concertos - Miklós Spányi (Vol.4)
Used drive : TSSTcorpCDDVDW SH-222BB Adapter: 2 ID: 1
Read mode : Secure
Utilize accurate stream : Yes
Defeat audio cache : Yes
Make use of C2 pointers : No
Read offset correction : 6
Overread into Lead-In and Lead-Out : No
Fill up missing offset samples with silence : Yes
Delete leading and trailing silent blocks : No
Null samples used in CRC calculations : Yes
Used interface : Native Win32 interface for Win NT & 2000
Used output format : User Defined Encoder
Selected bitrate : 896 kBit/s
Quality : High
Add ID3 tag : No
Command line compressor : C:\Program Files\Exact Audio Copy\FLAC\FLAC.EXE
Additional command line options : -8 -V -T "TITLE=%title%" -T "ARTIST=%artist%" -T "ALBUMARTIST=%albumartist%" -T "ALBUM=%albumtitle%" -T "DATE=%year%" -T "TRACKNUMBER=%tracknr%" -T "TRACKTOTAL=%numtracks%" -T "GENRE=%genre%" -T "COMMENT=%comment%" -T "PERFORMER=%albuminterpret%" -T "COMPOSER=%composer%" %source% -o %dest%
TOC of the extracted CD
Track | Start | Length | Start sector | End sector
---------------------------------------------------------
1 | 0:00.00 | 8:43.00 | 0 | 39224
2 | 8:43.00 | 6:51.00 | 39225 | 70049
3 | 15:34.00 | 7:07.00 | 70050 | 102074
4 | 22:41.00 | 8:06.00 | 102075 | 138524
5 | 30:47.00 | 7:12.00 | 138525 | 170924
6 | 37:59.00 | 7:18.00 | 170925 | 203774
7 | 45:17.00 | 7:36.00 | 203775 | 237974
8 | 52:53.00 | 7:06.00 | 237975 | 269924
9 | 59:59.00 | 5:54.00 | 269925 | 296474
Range status and errors
Selected range
Filename E:\3000\[3323] C.P.E. Bach – Keyboard Concertos – Miklós Spányi (Vol.4)\C.P.E. Bach - Keyboard Concertos - Miklós Spányi (Vol.4).wav
Peak level 100.0 %
Extraction speed 7.0 X
Range quality 100.0 %
Test CRC 0A6F743E
Copy CRC 0A6F743E
Copy OK
No errors occurred
AccurateRip summary
Track 1 accurately ripped (confidence 3) [131F78C8] (AR v2)
Track 2 accurately ripped (confidence 3) [36542E7F] (AR v2)
Track 3 accurately ripped (confidence 3) [324BC383] (AR v2)
Track 4 accurately ripped (confidence 3) [CFB970DF] (AR v2)
Track 5 accurately ripped (confidence 3) [E9CC45F5] (AR v2)
Track 6 accurately ripped (confidence 3) [BC5FD83D] (AR v2)
Track 7 accurately ripped (confidence 3) [8754ACB0] (AR v2)
Track 8 accurately ripped (confidence 3) [E2525BC1] (AR v2)
Track 9 accurately ripped (confidence 3) [1B964F76] (AR v2)
All tracks accurately ripped
End of status report
==== Log checksum 846CC4F95CF3053948A950915D86CFC6FD03F325EB17A1D0A30CD27A9B73C7A0 ====

.CUE

REM GENRE Musica classica
REM DATE 1997
REM DISCID 7D0F7109
REM COMMENT "TitoManlio"
TITLE "C. Ph. E. Bach. Concerti per tastiera. Tomo Quarto [BIS 1997]."
FILE "C. Ph. E. Bach. Concerti per tastiera. Tomo Quarto [BIS 1997].flac" WAVE
TRACK 01 AUDIO
TITLE "Concerto H. 412 [Wq 9] in Sol maggiore per cembalo, archi e basso continuo - I. Allegro"
PERFORMER "Concerto Armonico, Péter Szűts [direttore artistico], Miklós Spányi [cembalista e direttore artistico]"
ISRC SEAEH9568010
FLAGS PRE
INDEX 01 00:00:00
TRACK 02 AUDIO
TITLE "Concerto H. 412 [Wq 9] in Sol maggiore per cembalo, archi e basso continuo - II. Adagio"
PERFORMER "Concerto Armonico, Péter Szűts [direttore artistico], Miklós Spányi [cembalista e direttore artistico]"
ISRC SEAEH9568020
FLAGS PRE
INDEX 01 08:43:00
TRACK 03 AUDIO
TITLE "Concerto H. 412 [Wq 9] in Sol maggiore per cembalo, archi e basso continuo - III. Allegro assai"
PERFORMER "Concerto Armonico, Péter Szűts [direttore artistico], Miklós Spányi [cembalista e direttore artistico]"
ISRC SEAEH9568030
FLAGS PRE
INDEX 01 15:34:00
TRACK 04 AUDIO
TITLE "Concerto H. 420 [Wq 17] in Re minore per cembalo, archi e basso continuo - I. Allegro"
PERFORMER "Concerto Armonico, Péter Szűts [direttore artistico], Miklós Spányi [cembalista e direttore artistico]"
ISRC SEAEH9568040
FLAGS PRE
INDEX 01 22:41:00
TRACK 05 AUDIO
TITLE "Concerto H. 420 [Wq 17] in Re minore per cembalo, archi e basso continuo - II. Un poco adagio"
PERFORMER "Concerto Armonico, Péter Szűts [direttore artistico], Miklós Spányi [cembalista e direttore artistico]"
ISRC SEAEH9568050
FLAGS PRE
INDEX 01 30:47:00
TRACK 06 AUDIO
TITLE "Concerto H. 420 [Wq 17] in Re minore per cembalo, archi e basso continuo - III. Allegro"
PERFORMER "Concerto Armonico, Péter Szűts [direttore artistico], Miklós Spányi [cembalista e direttore artistico]"
ISRC SEAEH9568060
FLAGS PRE
INDEX 01 37:59:00
TRACK 07 AUDIO
TITLE "Concerto H. 416 [Wq 13] in Re maggiore per fortepiano, archi e basso continuo - I. Allegro"
PERFORMER "Concerto Armonico, Péter Szűts [direttore artistico], Miklós Spányi [pianista e direttore artistico]"
ISRC SEAEH9668070
FLAGS PRE
INDEX 01 45:17:00
TRACK 08 AUDIO
TITLE "Concerto H. 416 [Wq 13] in Re maggiore per fortepiano, archi e basso continuo - II. Un poco andante"
PERFORMER "Concerto Armonico, Péter Szűts [direttore artistico], Miklós Spányi [pianista e direttore artistico]"
ISRC SEAEH9668070
FLAGS PRE
INDEX 01 52:53:00
TRACK 09 AUDIO
TITLE "Concerto H. 416 [Wq 13] in Re maggiore per fortepiano, archi e basso continuo - III. Allegro assai"
PERFORMER "Concerto Armonico, Péter Szűts [direttore artistico], Miklós Spányi [pianista e direttore artistico]"
ISRC SEAEH9668090
FLAGS PRE
INDEX 01 59:59:00
[teatrix.ru].t9949.torrent 
Торрент: Зарегистрирован [ 2015-10-25 20:37 ] · DFE63E96989472A76D88039CB570BEFDA4ECD01E

Скачать .torrent

Скачать

17 KB

Статус: проверено
Скачан: 0 раз
Размер: 377 MB
terms.php



Быстрый ответ

Имя:

      
Для отправки сообщений необходимо включить JavaScript
Показать сообщения:    

Текущее время: 06-Дек 18:56

Часовой пояс: UTC + 3


Вы можете начинать темы
Вы можете отвечать на сообщения
Вы не можете редактировать свои сообщения
Вы не можете удалять свои сообщения
Вы не можете голосовать в опросах
Вы не можете прикреплять файлы к сообщениям
Вы можете скачивать файлы