(Classical, Orchestral, Keyboard, Authentic) Carl Philipp Emanuel Bach - Keyboard Concertos. Vol. 3 [Concerto Armonico, Peter Szuts, Miklos Spanyi], BIS 1996, FLAC (image+.cue), lossless


Статистика раздачи [Обновить пиров]
Размер:  410 MB   |    Зарегистрирован:  1 год 1 месяц   |    Скачан:  1 раз

Полного источника не было: 1 месяц 22 дня

Личеров:  1  [  0 KB/s  ]   Подробная статистика пиров
 
   
 
 
 

[Цитировать]

Carl Philipp Emanuel Bach
Concerti per tastiera. Tomo Terzo.
H. 409 [Wq 6], H. 411 [Wq 8], H. 421 [Wq 18]

Концерты для клавира. Том Третий.-- Жанр: Classical, Orchestral, Keyboard, Authentic
Страна-производитель диска: Austria
Год издания: 1996
Лейбл: BIS
Номер в каталоге: BIS-CD-767
Аудиокодек: FLAC
Тип рипа: image+.cue
Битрейт аудио: lossless
Продолжительность: 01:07:58
Наличие сканов: booklet [jpeg+pdf]
Источник: ODEON
Concerto Armonico
Péter Szűts direttore artistico
Miklós Spányi cembalista e direttore artistico

Треклист

01. H. 409 [Wq 6] - Concerto in Sol minore per cembalo, archi e basso continuo - I. [Senza indicazione di tempo] [00:08:05]
02. II. Largo [00:09:29]
03. III. Allegro di molto [00:07:43]
04. H. 411 [Wq 8] - Concerto in La maggiore per cembalo, archi e basso continuo - I. Allegro [00:06:36]
05. II. Andante e con sordini [00:07:36]
06. III. Allegro [00:06:39]
07. H. 421 [Wq 18] - Concerto in Re maggiore per cembalo, archi e basso continuo - I. Allegro [00:07:51]
08. II. Andante [00:06:08]
09. III. Allegro di molto [00:07:49]

LOG EAC

Exact Audio Copy V1.0 beta 3 from 29. August 2011
EAC extraction logfile from 11. March 2014, 22:11
Miklós Spányi / C.P.E. Bach - Keyboard Concertos - Miklós Spányi (Vol.3)
Used drive : TSSTcorpCDDVDW SH-222BB Adapter: 2 ID: 1
Read mode : Secure
Utilize accurate stream : Yes
Defeat audio cache : Yes
Make use of C2 pointers : No
Read offset correction : 6
Overread into Lead-In and Lead-Out : No
Fill up missing offset samples with silence : Yes
Delete leading and trailing silent blocks : No
Null samples used in CRC calculations : Yes
Used interface : Native Win32 interface for Win NT & 2000
Used output format : User Defined Encoder
Selected bitrate : 896 kBit/s
Quality : High
Add ID3 tag : No
Command line compressor : C:\Program Files\Exact Audio Copy\FLAC\FLAC.EXE
Additional command line options : -8 -V -T "TITLE=%title%" -T "ARTIST=%artist%" -T "ALBUMARTIST=%albumartist%" -T "ALBUM=%albumtitle%" -T "DATE=%year%" -T "TRACKNUMBER=%tracknr%" -T "TRACKTOTAL=%numtracks%" -T "GENRE=%genre%" -T "COMMENT=%comment%" -T "PERFORMER=%albuminterpret%" -T "COMPOSER=%composer%" %source% -o %dest%
TOC of the extracted CD
Track | Start | Length | Start sector | End sector
---------------------------------------------------------
1 | 0:00.00 | 8:05.00 | 0 | 36374
2 | 8:05.00 | 9:29.00 | 36375 | 79049
3 | 17:34.00 | 7:43.00 | 79050 | 113774
4 | 25:17.00 | 6:36.00 | 113775 | 143474
5 | 31:53.00 | 7:36.55 | 143475 | 177729
6 | 39:29.55 | 6:39.20 | 177730 | 207674
7 | 46:09.00 | 7:51.00 | 207675 | 242999
8 | 54:00.00 | 6:08.32 | 243000 | 270631
9 | 60:08.32 | 7:49.43 | 270632 | 305849
Range status and errors
Selected range
Filename E:\3000\[3374] C.P.E. Bach – Keyboard Concertos – Miklós Spányi (Vol.3)\C.P.E. Bach - Keyboard Concertos - Miklós Spányi (Vol.3).wav
Peak level 92.2 %
Extraction speed 3.2 X
Range quality 100.0 %
Test CRC E7896D3C
Copy CRC E7896D3C
Copy OK
No errors occurred
AccurateRip summary
Track 1 accurately ripped (confidence 6) [6BDE448D] (AR v1)
Track 2 accurately ripped (confidence 6) [BFE4F927] (AR v1)
Track 3 accurately ripped (confidence 6) [C394A7F1] (AR v1)
Track 4 accurately ripped (confidence 6) [41C77155] (AR v1)
Track 5 accurately ripped (confidence 6) [C58EAD85] (AR v1)
Track 6 accurately ripped (confidence 6) [9759B9E0] (AR v1)
Track 7 accurately ripped (confidence 6) [696A1FD1] (AR v1)
Track 8 accurately ripped (confidence 5) [C6803808] (AR v1)
Track 9 accurately ripped (confidence 4) [75CAB6F5] (AR v1)
All tracks accurately ripped
End of status report
==== Log checksum 90AFFC040C85DF0F5EED8F089EFB691D89C565E72D2FC732E2F19F7C8371DDDE ====

.CUE

REM GENRE Musica classica
REM DATE 1996
REM DISCID 740FEE09
REM COMMENT "TitoManlio"
CATALOG 7318590007679
PERFORMER "Concerto Armonico, Péter Szűts [direttore artistico], Miklós Spányi [cembalista e direttore artistico]"
TITLE "C. Ph. E. Bach. Concerti per tastiera. Tomo Terzo [BIS 1996]."
FILE "C. Ph. E. Bach. Concerti per tastiera. Tomo Terzo [BIS 1996].flac" WAVE
TRACK 01 AUDIO
TITLE "Concerto H. 409 [Wq 6] in Sol minore per cembalo, archi e basso continuo - I. [Senza indicazione di tempo]"
PERFORMER "Concerto Armonico, Péter Szűts [direttore artistico], Miklós Spányi [cembalista e direttore artistico]"
ISRC SEAEH9567010
FLAGS PRE
INDEX 01 00:00:00
TRACK 02 AUDIO
TITLE "Concerto H. 409 [Wq 6] in Sol minore per cembalo, archi e basso continuo - II. Largo"
PERFORMER "Concerto Armonico, Péter Szűts [direttore artistico], Miklós Spányi [cembalista e direttore artistico]"
ISRC SEAEH9567020
FLAGS PRE
INDEX 01 08:05:00
TRACK 03 AUDIO
TITLE "Concerto H. 409 [Wq 6] in Sol minore per cembalo, archi e basso continuo - III. Allegro di molto"
PERFORMER "Concerto Armonico, Péter Szűts [direttore artistico], Miklós Spányi [cembalista e direttore artistico]"
ISRC SEAEH9567030
FLAGS PRE
INDEX 01 17:34:00
TRACK 04 AUDIO
TITLE "Concerto H. 411 [Wq 8] in La maggiore per cembalo, archi e basso continuo - I. Allegro"
PERFORMER "Concerto Armonico, Péter Szűts [direttore artistico], Miklós Spányi [cembalista e direttore artistico]"
ISRC SEAEH9567040
FLAGS PRE
INDEX 01 25:17:00
TRACK 05 AUDIO
TITLE "Concerto H. 411 [Wq 8] in La maggiore per cembalo, archi e basso continuo - II. Andante e con sordini"
PERFORMER "Concerto Armonico, Péter Szűts [direttore artistico], Miklós Spányi [cembalista e direttore artistico]"
ISRC SEAEH9567050
FLAGS PRE
INDEX 01 31:53:00
TRACK 06 AUDIO
TITLE "Concerto H. 411 [Wq 8] in La maggiore per cembalo, archi e basso continuo - III. Allegro"
PERFORMER "Concerto Armonico, Péter Szűts [direttore artistico], Miklós Spányi [cembalista e direttore artistico]"
ISRC SEAEH9567060
FLAGS PRE
INDEX 01 39:29:55
TRACK 07 AUDIO
TITLE "Concerto H. 421 [Wq 18] in Re maggiore per cembalo, archi e basso continuo - I. Allegro"
PERFORMER "Concerto Armonico, Péter Szűts [direttore artistico], Miklós Spányi [cembalista e direttore artistico]"
ISRC SEAEH9567070
FLAGS PRE
INDEX 01 46:09:00
TRACK 08 AUDIO
TITLE "Concerto H. 421 [Wq 18] in Re maggiore per cembalo, archi e basso continuo - II. Andante"
PERFORMER "Concerto Armonico, Péter Szűts [direttore artistico], Miklós Spányi [cembalista e direttore artistico]"
ISRC SEAEH9567080
FLAGS PRE
INDEX 01 54:00:00
TRACK 09 AUDIO
TITLE "Concerto H. 421 [Wq 18] in Re maggiore per cembalo, archi e basso continuo - III. Allegro di molto"
PERFORMER "Concerto Armonico, Péter Szűts [direttore artistico], Miklós Spányi [cembalista e direttore artistico]"
ISRC SEAEH9567090
FLAGS PRE
INDEX 01 60:08:32
[teatrix.ru].t9950.torrent 
Торрент: Зарегистрирован [ 2015-10-25 20:37 ] · F1C8CDE292E2E413115F48810FF7DD0191D3CEB2

Скачать .torrent

Скачать

18 KB

Статус: проверено
Скачан: 1 раз
Размер: 410 MB
terms.php



Быстрый ответ

Имя:

      
Для отправки сообщений необходимо включить JavaScript
Показать сообщения:    

Текущее время: 08-Дек 17:21

Часовой пояс: UTC + 3


Вы можете начинать темы
Вы можете отвечать на сообщения
Вы не можете редактировать свои сообщения
Вы не можете удалять свои сообщения
Вы не можете голосовать в опросах
Вы не можете прикреплять файлы к сообщениям
Вы можете скачивать файлы