(Classical) The Romantic Violin Concerto – Vol. 15: Mlynarski & Zarzycki (Угорский / Ugorski, Dworzynski) - 2014, FLAC (image+.cue) lossless


Статистика раздачи [Обновить пиров]
Размер:  292 MB   |    Зарегистрирован:  1 год 1 месяц   |    Скачан:  0 раз

Полного источника не было: Никогда

Личеров:  1  [  0 KB/s  ]   Подробная статистика пиров
 
   
 
 
 

[Цитировать]

The Romantic Violin Concerto – Vol. 15: Młynarski & Zarzycki (Угорский / Ugorski, Dworzyński)
Жанр: Classical
Страна-производитель диска: Франция
Год издания диска: 2014
Издатель (лейбл): Hyperion
Номер по каталогу: CDA 67990
Дата записи: 27 и 28 марта 2013 г., Глазго.
Аудиокодек: FLAC
Тип рипа: image+.cue
Битрейт аудио: lossless
Продолжительность: 01:04:52
Источник: odeonmusic
Наличие сканов в содержимом раздачи: да
Треклист:
Эмиль Шимон Млынарский (1870 — 1935).
Скрипичный концерт № 1 d-moll, op. 11 (ок. 1897).
01. I. Allegro moderato [10:18].
02. II. Adagio. — Un poco più mosso. — Tempo I [07:11].
03. III. Allegro. — Allegro molto [07:23].
Скрипичный концерт № 2 D-dur, op. 16 (ок. 1916).
04. I. Allegro moderato [10:02].
05. II. Quasi notturno. Andante [08:00].
06. III. Allegro vivace. — Presto [08:01].
Александр Зажицкий [sic!] (1834 — 1895).
Интродукция и краковяк D-dur для скрипки с оркестром, op. 35.
07. Интродукция. Andantino. — [04:43].
08. Краковяк. Vivace [04:05].
Мазурка G-dur для скрипки с оркестром, op. 26 (оп. ок. 1884).
09. Vivo. — Molto meno mosso. — Tempo I [05:07].
Исполнители:
Евгений Угорский (скрипка).
BBC Scottish Symphony Orchestra.
Дирижер Michał Dworzyński.

Лог создания рипа

Exact Audio Copy V1.0 beta 3 from 29. August 2011
EAC extraction logfile from 30. April 2014, 15:52
Eugene Ugorski / Mlynarski, Zarzycki - Works for Violin and Orchestra - Ugorski (Romantic Violin Concerto – 15)
Used drive : TSSTcorpCDDVDW SH-222BB Adapter: 2 ID: 1
Read mode : SecureUtilize accurate stream : YesDefeat audio cache : YesMake use of C2 pointers : No
Read offset correction : 6Overread into Lead-In and Lead-Out : NoFill up missing offset samples with silence : YesDelete leading and trailing silent blocks : NoNull samples used in CRC calculations : YesUsed interface : Native Win32 interface for Win NT & 2000
Used output format : User Defined EncoderSelected bitrate : 896 kBit/sQuality : HighAdd ID3 tag : NoCommand line compressor : C:\Program Files\Exact Audio Copy\FLAC\FLAC.EXEAdditional command line options : -8 -V -T "TITLE=%title%" -T "ARTIST=%artist%" -T "ALBUMARTIST=%albumartist%" -T "ALBUM=%albumtitle%" -T "DATE=%year%" -T "TRACKNUMBER=%tracknr%" -T "TRACKTOTAL=%numtracks%" -T "GENRE=%genre%" -T "COMMENT=%comment%" -T "PERFORMER=%albuminterpret%" -T "COMPOSER=%composer%" %source% -o %dest%
TOC of the extracted CD
Track | Start | Length | Start sector | End sector --------------------------------------------------------- 1 | 0:00.00 | 10:18.45 | 0 | 46394 2 | 10:18.45 | 7:11.12 | 46395 | 78731 3 | 17:29.57 | 7:22.54 | 78732 | 111935 4 | 24:52.36 | 10:01.67 | 111936 | 157077 5 | 34:54.28 | 8:00.21 | 157078 | 193098 6 | 42:54.49 | 8:01.13 | 193099 | 229186 7 | 50:55.62 | 4:42.37 | 229187 | 250373 8 | 55:38.24 | 4:04.61 | 250374 | 268734 9 | 59:43.10 | 5:07.25 | 268735 | 291784
Range status and errors
Selected range
Filename G:\Ripped general\[8048] Mlynarski, Zarzycki – Works for Violin and Orchestra – Ugorski (Romantic Violin Concerto – 15)\Mlynarski, Zarzycki - Works for Violin and Orchestra - Ugorski (Romantic Violin Concerto – 15).wav
Peak level 100.0 % Extraction speed 6.6 X Range quality 100.0 % Test CRC 4C9134AE Copy CRC 4C9134AE Copy OK
No errors occurred
AccurateRip summary
Track 1 not present in databaseTrack 2 not present in databaseTrack 3 not present in databaseTrack 4 not present in databaseTrack 5 not present in databaseTrack 6 not present in databaseTrack 7 not present in databaseTrack 8 not present in databaseTrack 9 not present in database
None of the tracks are present in the AccurateRip database
End of status report
==== Log checksum 52DCE0606F2FFE735B7F357F3B0AEC2FD0AAB65C4B0BDE3F0A0151F85B06352C ====

Содержание индексной карты (.CUE)

REM GENRE ClassicalREM DATE 2013REM DISCID 760F3209REM COMMENT "ExactAudioCopy v1.0b3"CATALOG 0034571179902PERFORMER "Eugene Ugorski & Michal Dworzynski"TITLE "Mlynarski & Zarzycki – Works for Violin & Orchestra – Ugorski (RVC – 15)"FILE "Mlynarski & Zarzycki – Works for Violin & Orchestra – Ugorski (RVC – 15).flac" WAVE TRACK 01 AUDIO TITLE "Mlynarski - Violin Concerto No. 1 in D minor, Op. 11 - I. Allegro moderato" PERFORMER "Eugene Ugorski & Michal Dworzynski" ISRC GBAJY1499001 INDEX 01 00:00:00 TRACK 02 AUDIO TITLE "Mlynarski - Violin Concerto No. 1 in D minor, Op. 11 - II. Adagio" PERFORMER "Eugene Ugorski & Michal Dworzynski" ISRC GBAJY1499002 INDEX 01 10:18:45 TRACK 03 AUDIO TITLE "Mlynarski - Violin Concerto No. 1 in D minor, Op. 11 - III. Allegro" PERFORMER "Eugene Ugorski & Michal Dworzynski" ISRC GBAJY1499003 INDEX 01 17:29:57 TRACK 04 AUDIO TITLE "Mlynarski - Violin Concerto No. 2 in D major, Op. 16 - I. Allegro moderato" PERFORMER "Eugene Ugorski & Michal Dworzynski" ISRC GBAJY1499004 INDEX 01 24:52:36 TRACK 05 AUDIO TITLE "Mlynarski - Violin Concerto No. 2 in D major, Op. 16 - II. Quasi notturno. Andante" PERFORMER "Eugene Ugorski & Michal Dworzynski" ISRC GBAJY1499005 INDEX 01 34:54:28 TRACK 06 AUDIO TITLE "Mlynarski - Violin Concerto No. 2 in D major, Op. 16 - III. Allegro vivace" PERFORMER "Eugene Ugorski & Michal Dworzynski" ISRC GBAJY1499006 INDEX 01 42:54:49 TRACK 07 AUDIO TITLE "Zarzycki - Introduction & Cracovienne for violin & orchestra in D major, Op. 35 - Introduction. Andantino -" PERFORMER "Eugene Ugorski & Michal Dworzynski" ISRC GBAJY1499007 INDEX 01 50:55:62 TRACK 08 AUDIO TITLE "Zarzycki - Introduction & Cracovienne for violin & orchestra in D major, Op. 35 - Cracovienne. Vivace" PERFORMER "Eugene Ugorski & Michal Dworzynski" ISRC GBAJY1499008 INDEX 01 55:38:24 TRACK 09 AUDIO TITLE "Zarzycki - Mazurka for violin & orchestra in G major, Op. 26" PERFORMER "Eugene Ugorski & Michal Dworzynski" ISRC GBAJY1499009 INDEX 01 59:43:10

Вариант индексной карты (.CUE) с выставленными зазорами

REM GENRE ClassicalREM DATE 2013REM DISCID 760F3209REM COMMENT "ExactAudioCopy v1.0b3"CATALOG 0034571179902PERFORMER "Eugene Ugorski & Michal Dworzynski"TITLE "Mlynarski & Zarzycki – Works for Violin & Orchestra – Ugorski (RVC – 15)"FILE "Mlynarski & Zarzycki – Works for Violin & Orchestra – Ugorski (RVC – 15).flac" WAVE TRACK 01 AUDIO TITLE "Mlynarski - Violin Concerto No. 1 in D minor, Op. 11 - I. Allegro moderato" PERFORMER "Eugene Ugorski & Michal Dworzynski" ISRC GBAJY1499001 INDEX 01 00:00:00 INDEX 02 00:02:28 TRACK 02 AUDIO TITLE "Mlynarski - Violin Concerto No. 1 in D minor, Op. 11 - II. Adagio" PERFORMER "Eugene Ugorski & Michal Dworzynski" ISRC GBAJY1499002 INDEX 00 10:14:61 INDEX 01 10:19:21 TRACK 03 AUDIO TITLE "Mlynarski - Violin Concerto No. 1 in D minor, Op. 11 - III. Allegro" PERFORMER "Eugene Ugorski & Michal Dworzynski" ISRC GBAJY1499003 INDEX 00 17:25:71 INDEX 01 17:29:57 TRACK 04 AUDIO TITLE "Mlynarski - Violin Concerto No. 2 in D major, Op. 16 - I. Allegro moderato" PERFORMER "Eugene Ugorski & Michal Dworzynski" ISRC GBAJY1499004 INDEX 00 24:45:19 INDEX 01 24:52:36 TRACK 05 AUDIO TITLE "Mlynarski - Violin Concerto No. 2 in D major, Op. 16 - II. Quasi notturno. Andante" PERFORMER "Eugene Ugorski & Michal Dworzynski" ISRC GBAJY1499005 INDEX 00 34:49:51 INDEX 01 34:54:28 TRACK 06 AUDIO TITLE "Mlynarski - Violin Concerto No. 2 in D major, Op. 16 - III. Allegro vivace" PERFORMER "Eugene Ugorski & Michal Dworzynski" ISRC GBAJY1499006 INDEX 00 42:53:36 INDEX 01 42:54:49 TRACK 07 AUDIO TITLE "Zarzycki - Introduction & Cracovienne for violin & orchestra in D major, Op. 35 - Introduction. Andantino -" PERFORMER "Eugene Ugorski & Michal Dworzynski" ISRC GBAJY1499007 INDEX 00 50:49:24 INDEX 01 50:55:62 TRACK 08 AUDIO TITLE "Zarzycki - Introduction & Cracovienne for violin & orchestra in D major, Op. 35 - Cracovienne. Vivace" PERFORMER "Eugene Ugorski & Michal Dworzynski" ISRC GBAJY1499008 INDEX 00 55:37:04 INDEX 01 55:38:24 TRACK 09 AUDIO TITLE "Zarzycki - Mazurka for violin & orchestra in G major, Op. 26" PERFORMER "Eugene Ugorski & Michal Dworzynski" ISRC GBAJY1499009 INDEX 00 59:38:71 INDEX 01 59:43:10 INDEX 02 64:39:53
[teatrix.ru].t9951.torrent 
Торрент: Зарегистрирован [ 2015-10-25 20:37 ] · BDD309DF04381CA1F7809824AD3137C682A5FF29

Скачать .torrent

Скачать

13 KB

Статус: проверено
Скачан: 0 раз
Размер: 292 MB
terms.php



Быстрый ответ

Имя:

      
Для отправки сообщений необходимо включить JavaScript
Показать сообщения:    

Текущее время: 10-Дек 10:00

Часовой пояс: UTC + 3


Вы можете начинать темы
Вы можете отвечать на сообщения
Вы не можете редактировать свои сообщения
Вы не можете удалять свои сообщения
Вы не можете голосовать в опросах
Вы не можете прикреплять файлы к сообщениям
Вы можете скачивать файлы