(Classical) Richard Nanes - Violin Rhapsody, Symphony for Strings, Concerto Grosso {Eugene Fodor, London Philharmonic Orchestra, Keith Clark} - 1986, FLAC (tracks+.cue) lossless


Статистика раздачи [Обновить пиров]
Размер:  225 MB   |    Зарегистрирован:  1 год 1 месяц   |    Скачан:  0 раз

Полного источника не было: Никогда

Личеров:  1  [  0 KB/s  ]   Подробная статистика пиров
 
   
 
 
 

[Цитировать]

Richard Nanes -
Rhapsody Pathetique for Violin & Orchestra,
Symphony for Strings,
Concerto Grosso for Brass Trio & Chamber Orchestra
(1986)

Жанр: Classical
Страна-производитель диска: USA
Год издания диска: 1986
Издатель (лейбл): Delfon Recording Society
Номер по каталогу: CDR 2422
Дата записи: 1986
Аудиокодек: FLAC
Тип рипа: tracks+.cue
Битрейт аудио: lossless
Продолжительность: 00:53:05
Источник: собственный рип
Наличие сканов в содержимом раздачи: нет, есть фото в папке Artwork
Треклист:
01. Rhapsody Pathetique For Violin And Orchestra (24:04)
Symphony For Strings:
02. Allegro Vivace (3:36)
03. Andante (6:15)
04. Minuet (3:27)
05. Allegro Con Brio (2:12)
06. Concerto Grosso For Brass Trio And Chamber Orchestra (13:31)
Исполнители:
Richard Nanes - composer
London Philharmonic Orchestra
Keith Clark - conducted
Eugene Fodor - violin solo

Лог создания рипа

Exact Audio Copy V1.0 beta 1 from 15. November 2010
EAC extraction logfile from 12. June 2014, 21:27
London Philharmonic Orchestra, Keith Clark / Richard Nanes ~ Violin rhapsody, Symphony for strings, Concerto grosso
Used drive : Optiarc DVD RW AD-7200A Adapter: 0 ID: 0
Read mode : SecureUtilize accurate stream : YesDefeat audio cache : YesMake use of C2 pointers : No
Read offset correction : 48Overread into Lead-In and Lead-Out : NoFill up missing offset samples with silence : YesDelete leading and trailing silent blocks : NoNull samples used in CRC calculations : YesUsed interface : Native Win32 interface for Win NT & 2000Gap handling : Appended to previous track
Used output format : User Defined EncoderSelected bitrate : 768 kBit/sQuality : HighAdd ID3 tag : NoCommand line compressor : C:\Program Files\Exact Audio Copy\Flac\flac.exeAdditional command line options : -8 -V -T "ARTIST=%a" -T "TITLE=%t" -T "ALBUM=%g" -T "DATE=%y" -T "TRACKNUMBER=%n" -T "TOTALTRACKS=%x" -T "GENRE=%m" -T "ALBUMARTIST=%v" -T "ALBUM ARTIST=%v" -T "COMMENT=EAC Secure Mode, Test & Copy, AccurateRip, FLAC -8" %s
TOC of the extracted CD
Track | Start | Length | Start sector | End sector --------------------------------------------------------- 1 | 0:00.00 | 24:03.60 | 0 | 108284 2 | 24:03.60 | 3:36.07 | 108285 | 124491 3 | 27:39.67 | 6:15.08 | 124492 | 152624 4 | 33:55.00 | 3:27.17 | 152625 | 168166 5 | 37:22.17 | 2:12.00 | 168167 | 178066 6 | 39:34.17 | 13:30.50 | 178067 | 238866
Track 1
Filename D:\Richard Nanes - Violin rhapsody, Symphony for strings, Concerto grosso (1986) [FLAC]\01 - Rhapsody Pathetique For Violin And Orchestra.wav
Pre-gap length 0:00:02.00
Peak level 99.1 % Extraction speed 3.3 X Track quality 99.9 % Test CRC DA2A08EF Copy CRC DA2A08EF Accurately ripped (confidence 1) [793E90AA] Copy OK
Track 2
Filename D:\Richard Nanes - Violin rhapsody, Symphony for strings, Concerto grosso (1986) [FLAC]\02 - Symphony For Strings - Allegro Vivace.wav
Pre-gap length 0:00:06.50
Peak level 42.6 % Extraction speed 3.6 X Track quality 100.0 % Test CRC E4B91DB1 Copy CRC E4B91DB1 Accurately ripped (confidence 1) [28A21A1C] Copy OK
Track 3
Filename D:\Richard Nanes - Violin rhapsody, Symphony for strings, Concerto grosso (1986) [FLAC]\03 - Symphony For Strings - Andante.wav
Pre-gap length 0:00:03.02
Peak level 36.3 % Extraction speed 4.1 X Track quality 100.0 % Test CRC D2B21F59 Copy CRC D2B21F59 Accurately ripped (confidence 1) [50A84A4E] Copy OK
Track 4
Filename D:\Richard Nanes - Violin rhapsody, Symphony for strings, Concerto grosso (1986) [FLAC]\04 - Symphony For Strings - Minuet.wav
Pre-gap length 0:00:02.25
Peak level 31.3 % Extraction speed 3.5 X Track quality 99.9 % Test CRC 9607D71B Copy CRC 9607D71B Accurately ripped (confidence 1) [D0179084] Copy OK
Track 5
Filename D:\Richard Nanes - Violin rhapsody, Symphony for strings, Concerto grosso (1986) [FLAC]\05 - Symphony For Strings - Allegro Con Brio.wav
Pre-gap length 0:00:00.35
Peak level 37.1 % Extraction speed 3.8 X Track quality 100.0 % Test CRC B54750D4 Copy CRC B54750D4 Accurately ripped (confidence 1) [FF6EB708] Copy OK
Track 6
Filename D:\Richard Nanes - Violin rhapsody, Symphony for strings, Concerto grosso (1986) [FLAC]\06 - Concerto Grosso For Brass Trio And Chamber Orchestra.wav
Pre-gap length 0:00:05.17
Peak level 97.6 % Extraction speed 5.0 X Track quality 100.0 % Test CRC 835899D1 Copy CRC 835899D1 Accurately ripped (confidence 1) [B5095E79] Copy OK
All tracks accurately ripped
No errors occurred
End of status report
==== Log checksum 5499F6E531AC1A99318F2FE69172C4C97F076C604D2579A239FBA2BFF6BB1D5A ====

Содержание индексной карты (.CUE)

REM GENRE contemporaryREM DATE 1986REM DISCID 480C7006REM COMMENT "ExactAudioCopy v1.0b1"PERFORMER "London Philharmonic Orchestra, Keith Clark"TITLE "Richard Nanes ~ Violin rhapsody, Symphony for strings, Concerto grosso"FILE "01 - Rhapsody Pathetique For Violin And Orchestra.wav" WAVE TRACK 01 AUDIO TITLE "Rhapsody Pathetique For Violin And Orchestra" PERFORMER "London Philharmonic Orchestra, Keith Clark" INDEX 01 00:00:00 TRACK 02 AUDIO TITLE "Symphony For Strings - Allegro Vivace" PERFORMER "London Philharmonic Orchestra, Keith Clark" INDEX 00 23:57:10FILE "02 - Symphony For Strings - Allegro Vivace.wav" WAVE INDEX 01 00:00:00 TRACK 03 AUDIO TITLE "Symphony For Strings - Andante" PERFORMER "London Philharmonic Orchestra, Keith Clark" INDEX 00 03:33:05FILE "03 - Symphony For Strings - Andante.wav" WAVE INDEX 01 00:00:00 TRACK 04 AUDIO TITLE "Symphony For Strings - Minuet" PERFORMER "London Philharmonic Orchestra, Keith Clark" INDEX 00 06:12:58FILE "04 - Symphony For Strings - Minuet.wav" WAVE INDEX 01 00:00:00 TRACK 05 AUDIO TITLE "Symphony For Strings - Allegro Con Brio" PERFORMER "London Philharmonic Orchestra, Keith Clark" INDEX 00 03:26:57FILE "05 - Symphony For Strings - Allegro Con Brio.wav" WAVE INDEX 01 00:00:00 TRACK 06 AUDIO TITLE "Concerto Grosso For Brass Trio And Chamber Orchestra" PERFORMER "London Philharmonic Orchestra, Keith Clark" INDEX 00 02:06:58FILE "06 - Concerto Grosso For Brass Trio And Chamber Orchestra.wav" WAVE INDEX 01 00:00:00
Доп. информация: EMI Abbey Road Studios, London, England. Editor: Gregory K. Squires.
[teatrix.ru].t9952.torrent 
Торрент: Зарегистрирован [ 2015-10-25 20:37 ] · C9FEDBF59914B98E8A7BB5ED0427F2CCC0B4BE97

Скачать .torrent

Скачать

19 KB

Статус: проверено
Скачан: 0 раз
Размер: 225 MB
terms.php



Быстрый ответ

Имя:

      
Для отправки сообщений необходимо включить JavaScript
Показать сообщения:    

Текущее время: 07-Дек 19:19

Часовой пояс: UTC + 3


Вы можете начинать темы
Вы можете отвечать на сообщения
Вы не можете редактировать свои сообщения
Вы не можете удалять свои сообщения
Вы не можете голосовать в опросах
Вы не можете прикреплять файлы к сообщениям
Вы можете скачивать файлы