(Classical, piano) Сергей Рахманинов, Антон Рубинштейн - Фортепианные концерты - Joseph Moog, Deutsche Staatsphilharmonie Rheinland-Pfalz, Nicholas Milton - 2012, FLAC (image+.cue) lossless


Статистика раздачи [Обновить пиров]
Размер:  281 MB   |    Зарегистрирован:  1 год 1 месяц   |    Скачан:  0 раз

Полного источника не было: Никогда

Личеров:  1  [  0 KB/s  ]   Подробная статистика пиров
 
   
 
 
 

[Цитировать]

Сергей Рахманинов, Антон Рубинштейн - Фортепианные концерты - Joseph Moog, Deutsche Staatsphilharmonie Rheinland-Pfalz, Nicholas Milton
Жанр: Classical, piano
Год издания диска: 2012
Издатель (лейбл): Onyx
Номер по каталогу: ONYX 4089
Дата записи: 2011
Аудиокодек: FLAC
Тип рипа: image+.cue
Битрейт аудио: lossless
Продолжительность: 69:49
Источник: собственный рип
Наличие сканов в содержимом раздачи: да
Треклист:
Антон Рубинштейн (1829–1894)
[1]-[3] Концерт для фортепиано с оркестром №4 ре минор, Op.70
Сергей Рахманинов (1873–1943)
[4]-[6] Концерт для фортепиано с оркестром №3 ре минор, Op.30
Исполнители:
Joseph Moog piano
Deutsche Staatsphilharmonie Rheinland-Pfalz
Nicholas Milton

Лог создания рипа

Exact Audio Copy V1.0 beta 3 from 29. August 2011
EAC extraction logfile from 9. June 2014, 16:38
Joseph Moog, Deutsche Staatsphilharmonie Rheinland-Pfalz, Nicholas Milton / Rachmaninov, Rubinstein - Piano Concertos
Used drive : HL-DT-STDVDRRW GWA-4164B Adapter: 5 ID: 0
Read mode : SecureUtilize accurate stream : YesDefeat audio cache : YesMake use of C2 pointers : No
Read offset correction : 102Overread into Lead-In and Lead-Out : NoFill up missing offset samples with silence : YesDelete leading and trailing silent blocks : NoNull samples used in CRC calculations : YesUsed interface : Native Win32 interface for Win NT & 2000
Used output format : User Defined EncoderSelected bitrate : 896 kBit/sQuality : HighAdd ID3 tag : NoCommand line compressor : C:\Program Files\Exact Audio Copy\FLAC\FLAC.EXEAdditional command line options : -V -8 %source%
TOC of the extracted CD
Track | Start | Length | Start sector | End sector --------------------------------------------------------- 1 | 0:00.00 | 11:29.01 | 0 | 51675 2 | 11:29.01 | 10:46.00 | 51676 | 100125 3 | 22:15.01 | 8:52.00 | 100126 | 140025 4 | 31:07.01 | 14:52.00 | 140026 | 206925 5 | 45:59.01 | 10:49.30 | 206926 | 255630 6 | 56:48.31 | 13:01.31 | 255631 | 314236
Range status and errors
Selected range
Filename D:\temp\Music\Rachmaninov, Rubinstein - Piano Concertos (Moog)\Rachmaninov, Rubinstein - Piano Concertos.wav
Peak level 97.8 % Extraction speed 2.7 X Range quality 99.9 % Test CRC 8020FC90 Copy CRC 8020FC90 Copy OK
No errors occurred
AccurateRip summary
Track 1 accurately ripped (confidence 2) [A354113C] (AR v2)Track 2 accurately ripped (confidence 3) [7CDD0685] (AR v2)Track 3 accurately ripped (confidence 3) [6A02C0CC] (AR v2)Track 4 accurately ripped (confidence 3) [104D9AB1] (AR v2)Track 5 accurately ripped (confidence 3) [A3862125] (AR v2)Track 6 accurately ripped (confidence 3) [6E44C732] (AR v2)
All tracks accurately ripped
End of status report
==== Log checksum 6FC43F308F685A441B03E59BAAD3A5A34707D3190F9AB0C57452325849940A3E ====
[teatrix.ru].t9953.torrent 
Торрент: Зарегистрирован [ 2015-10-25 20:37 ] · 504CE7E5F2A3127A93297E64118FB9C1A89E2B98

Скачать .torrent

Скачать

23 KB

Статус: проверено
Скачан: 0 раз
Размер: 281 MB
terms.php



Быстрый ответ

Имя:

      
Для отправки сообщений необходимо включить JavaScript
Показать сообщения:    

Текущее время: 02-Дек 21:13

Часовой пояс: UTC + 3


Вы можете начинать темы
Вы можете отвечать на сообщения
Вы не можете редактировать свои сообщения
Вы не можете удалять свои сообщения
Вы не можете голосовать в опросах
Вы не можете прикреплять файлы к сообщениям
Вы можете скачивать файлы