(Classical) Теодор Дюбуа – «Фритьоф», Фортепианный концерт № 2, Децимет / Theodore Dubois – Ouverture de Frithiof; Piano Concerto No. 2; Dixtuor (Wagner, Les Siecles, Roth) - 2012, FLAC (image+.cue) lossless


Статистика раздачи [Обновить пиров]
Размер:  255 MB   |    Зарегистрирован:  1 год 1 месяц   |    Скачан:  0 раз

Полного источника не было: Никогда

 
   
 
 
 

[Цитировать]

Теодор Дюбуа – «Фритьоф», Фортепианный концерт № 2, Децимет / Théodore Dubois – Ouverture de Frithiof; Piano Concerto No. 2; Dixtuor (Wagner, Les Siècles, Roth)
Жанр: Classical
Страна-производитель диска: Франция?
Год издания диска: 2012
Издатель (лейбл): Musicales Actes Sud (Les Siècles Live); harmonia mundi
Номер по каталогу: ASM 09
Дата записи:
12 апреля 2011 г., Венеция (1);
26 сентября 2010, аббатство Ройомон (2 — 5);
20 сентября 2011 г., фестиваль Musicales de Normandie (6 — 9).
Аудиокодек: FLAC
Тип рипа: image+.cue
Битрейт аудио: lossless
Продолжительность: 01:04:59
Источник: odeonmusic
Наличие сканов в содержимом раздачи: да
Треклист:
Франсуа-Клеман Теодор Дюбуа (1837 — 1924).
01. Увертюра e-moll к «[Саге о] Фритьофе» (опубл. 1894?) [09:32].
Фортепианный концерт № 2 f-moll (перв. исп. 1898).
02. I. Allegro [10:58].
03. II. Adagio con sentimento profondissimo. — Poco più animato. — Primo moto [04:26].
04. III. Allegro vivo, scherzando [02:31].
05. IV. [Cadenza.] Con molta fantasia. — Allegro. Moto del № 1. — Vivo. — Mouvement du № 3. Allegro vivo, scherzando. — Vivo. — Adagio. Moto del № 2. — Allegro. Moto del № 1. — [Finale.] Allegro con fuoco [06:42].
Децимет d-moll для духового (флейта, гобой, кларнет, фагот, валторна) и струнного (две скрипки, альт, виолончель, контрабас) квинтетов (опубл. 1909?).
06. I. Larghetto. — Allegro non troppo [08:54].
07. II. Larghetto [08:55].
08. III. Allegretto [04:11].
09. IV. Allegro [08:29].
Исполнители:
Vanessa Wagner (фортепиано, Érard 1874).
Les Siècles, на инструментах эпохи.
Дирижер François-Xavier Roth.

Лог создания рипа

Exact Audio Copy V1.0 beta 3 from 29. August 2011
EAC extraction logfile from 16. July 2013, 19:04
Les Siècles / Theodore Dubois - Piano Concerto No.2, Overture de Frithiof, Dixtuor - Les Siècles
Used drive : TSSTcorpCDDVDW SH-222BB Adapter: 2 ID: 1
Read mode : SecureUtilize accurate stream : YesDefeat audio cache : YesMake use of C2 pointers : No
Read offset correction : 6Overread into Lead-In and Lead-Out : NoFill up missing offset samples with silence : YesDelete leading and trailing silent blocks : NoNull samples used in CRC calculations : YesUsed interface : Native Win32 interface for Win NT & 2000
Used output format : User Defined EncoderSelected bitrate : 1024 kBit/sQuality : HighAdd ID3 tag : NoCommand line compressor : C:\Program Files\Exact Audio Copy\Flac\flac.exeAdditional command line options : -8 -V -T "TITLE=%title%" -T "ARTIST=%artist%" -T "ALBUMARTIST=%albumartist%" -T "ALBUM=%albumtitle%" -T "DATE=%year%" -T "TRACKNUMBER=%tracknr%" -T "TRACKTOTAL=%numtracks%" -T "GENRE=%genre%" -T "COMMENT=%comment%" -T "PERFORMER=%albuminterpret%" -T "COMPOSER=%composer%" %source% -o %dest%
TOC of the extracted CD
Track | Start | Length | Start sector | End sector --------------------------------------------------------- 1 | 0:00.00 | 9:39.59 | 0 | 43483 2 | 9:39.59 | 11:00.59 | 43484 | 93042 3 | 20:40.43 | 4:27.04 | 93043 | 113071 4 | 25:07.47 | 2:32.10 | 113072 | 124481 5 | 27:39.57 | 6:49.34 | 124482 | 155190 6 | 34:29.16 | 8:53.65 | 155191 | 195230 7 | 43:23.06 | 8:55.66 | 195231 | 235421 8 | 52:18.72 | 4:10.69 | 235422 | 254240 9 | 56:29.66 | 8:29.11 | 254241 | 292426
Range status and errors
Selected range
Filename G:\Ripped general\[8738] Theodore Dubois – Piano Concerto No.2, Overture de Frithiof, Dixtuor – Les Siècles\Theodore Dubois - Piano Concerto No.2, Overture de Frithiof, Dixtuor - Les Siècles.wav
Peak level 95.8 % Extraction speed 7.0 X Range quality 99.9 % Test CRC 6209BBD4 Copy CRC 6209BBD4 Copy OK
No errors occurred
AccurateRip summary
Track 1 not present in databaseTrack 2 not present in databaseTrack 3 not present in databaseTrack 4 not present in databaseTrack 5 not present in databaseTrack 6 not present in databaseTrack 7 not present in databaseTrack 8 not present in databaseTrack 9 not present in database
None of the tracks are present in the AccurateRip database
End of status report

Содержание индексной карты (.CUE)

REM GENRE ClassicalREM DATE 2012REM DISCID 650F3B09REM COMMENT "ExactAudioCopy v1.0b3"PERFORMER "Les Siecles & Francois-Xavier Roth"TITLE "Theodore Dubois – Piano Concerto No. 2, Overture de Frithiof, Dixtuor – Les Siecles"FILE "Theodore Dubois – Piano Concerto No. 2, Overture de Frithiof, Dixtuor – Les Siecles.flac" WAVE TRACK 01 AUDIO TITLE "Ouverture de Frithiof, for orchestra" PERFORMER "Les Siecles & Francois-Xavier Roth" INDEX 01 00:00:00 TRACK 02 AUDIO TITLE "Piano Concerto No. 2 in F minor - I. Allegro" PERFORMER "Vanessa Wagner & Francois-Xavier Roth" INDEX 00 09:33:60 INDEX 01 09:39:59 TRACK 03 AUDIO TITLE "Piano Concerto No. 2 in F minor - II. Adagio con sentimento profondissimo" PERFORMER "Vanessa Wagner & Francois-Xavier Roth" INDEX 01 20:40:43 TRACK 04 AUDIO TITLE "Piano Concerto No. 2 in F minor - III. Allegro vivo, scherzando" PERFORMER "Vanessa Wagner & Francois-Xavier Roth" INDEX 01 25:07:47 TRACK 05 AUDIO TITLE "Piano Concerto No. 2 in F minor - IV. Con molta fantasia - Allegro con fuoco" PERFORMER "Vanessa Wagner & Francois-Xavier Roth" INDEX 01 27:39:57 TRACK 06 AUDIO TITLE "Dixtuor for string & wind quintets - I. Larghetto - Allegro non troppo" PERFORMER "Les Siecles & Francois-Xavier Roth" INDEX 00 34:21:28 INDEX 01 34:29:16 TRACK 07 AUDIO TITLE "Dixtuor for string & wind quintets - II. Larghetto" PERFORMER "Les Siecles & Francois-Xavier Roth" INDEX 01 43:23:06 TRACK 08 AUDIO TITLE "Dixtuor for string & wind quintets - III. Allegretto" PERFORMER "Les Siecles & Francois-Xavier Roth" INDEX 01 52:18:72 TRACK 09 AUDIO TITLE "Dixtuor for string & wind quintets - IV. Allegro" PERFORMER "Les Siecles & Francois-Xavier Roth" INDEX 01 56:29:66
[teatrix.ru].t9955.torrent 
Торрент: Зарегистрирован [ 2015-10-25 20:37 ] · D38B17A7B1FE93526A0F734312752DB0FC82A303

Скачать .torrent

Скачать

21 KB

Статус: проверено
Скачан: 0 раз
Размер: 255 MB
terms.php



Быстрый ответ

Имя:

      
Для отправки сообщений необходимо включить JavaScript
Показать сообщения:    

Текущее время: 09-Дек 06:58

Часовой пояс: UTC + 3


Вы можете начинать темы
Вы можете отвечать на сообщения
Вы не можете редактировать свои сообщения
Вы не можете удалять свои сообщения
Вы не можете голосовать в опросах
Вы не можете прикреплять файлы к сообщениям
Вы можете скачивать файлы