(Classical, percussion) Ecstatic Drumbeat: Yiu-Kwong Chung, Keiko Abe, Zivkovic, Toshiro Mayuzumi - Evelyn Glennie, Taipei Chinese Orchestra, En Shao, Yiu-Kwong Chung - 2012, FLAC (image+.cue) lossless


Статистика раздачи [Обновить пиров]
Размер:  289 MB   |    Зарегистрирован:  1 год 1 месяц   |    Скачан:  0 раз

Полного источника не было: Никогда

Личеров:  1  [  0 KB/s  ]   Подробная статистика пиров
 
   
 
 
 

[Цитировать]

Ecstatic Drumbeat: Yiu-Kwong Chung, Keiko Abe, Zivkovic, Toshiro Mayuzumi - Evelyn Glennie, Taipei Chinese Orchestra, En Shao, Yiu-Kwong Chung
Жанр: Classical, percussion
Страна-производитель диска: Sweden
Год издания диска: 2012
Издатель (лейбл): BIS
Номер по каталогу: BIS-SACD-1599
Дата записи: 2010
Аудиокодек: FLAC
Тип рипа: image+.cue
Битрейт аудио: lossless
Продолжительность: 75:10
Источник: собственный рип
Наличие сканов в содержимом раздачи: да
Треклист:
Ecstatic Drumbeat
Works for Percussion and Chinese Orchestra
Yiu-Kwong Chung (b. 1956)
[1]-[3] Concerto for Percussion and Chinese Orchestra (2009)
after three poems by Qing Huang
Keiko Abe (b. 1937)
[4] Prism Rhapsody (1995/96)
for marimba and orchestra
Nebojša Jovan Živković (b. 1962)
[5] Born to Beat Wild, Op. 30 (2001)
for suona and percussion
Toshiro Mayuzumi (1929–97)
[6]-[8] Concertino for Xylophone and Orchestra (1965)
Yiu-Kwong Chung
[9] Emperor Qin Crushing the Battle Formations (2010)
for two percussionists and Chinese orchestra
Исполнители:
Evelyn Glennie percussion
Taipei Chinese Orchestra
En Shao
conductor ([1]–[3], [6]–[8])
Yiu-Kwong Chung conductor (other works)
Tzu-You Lin suona ([5])
Tsung-Hsin Hsieh percussion ([9])

Лог создания рипа

Exact Audio Copy V1.0 beta 3 from 29. August 2011
EAC extraction logfile from 7. May 2014, 0:43
Evelyn Glennie, Taipei Chinese Orchestra / Ecstatic Drumbeat
Used drive : HL-DT-STDVDRAM GSA-4083N Adapter: 1 ID: 0
Read mode : SecureUtilize accurate stream : YesDefeat audio cache : YesMake use of C2 pointers : No
Read offset correction : 667Overread into Lead-In and Lead-Out : NoFill up missing offset samples with silence : YesDelete leading and trailing silent blocks : NoNull samples used in CRC calculations : YesUsed interface : Native Win32 interface for Win NT & 2000
Used output format : User Defined EncoderSelected bitrate : 896 kBit/sQuality : HighAdd ID3 tag : NoCommand line compressor : C:\Program Files\Exact Audio Copy\Flac\flac.exeAdditional command line options : -V -8 %source%
TOC of the extracted CD
Track | Start | Length | Start sector | End sector --------------------------------------------------------- 1 | 0:00.00 | 9:45.63 | 0 | 43937 2 | 9:45.63 | 9:19.66 | 43938 | 85928 3 | 19:05.54 | 8:12.04 | 85929 | 122832 4 | 27:17.58 | 14:38.20 | 122833 | 188702 5 | 41:56.03 | 7:49.71 | 188703 | 223948 6 | 49:45.74 | 3:35.38 | 223949 | 240111 7 | 53:21.37 | 5:10.25 | 240112 | 263386 8 | 58:31.62 | 2:34.66 | 263387 | 275002 9 | 61:06.53 | 14:03.27 | 275003 | 338254
Range status and errors
Selected range
Filename J:\New Music\BIS-SACD-1599 - Ecstatic Drumbeat\Ecstatic Drumbeat.wav
Peak level 99.9 % Extraction speed 2.7 X Range quality 100.0 % Test CRC 7C0FB00F Copy CRC 7C0FB00F Copy OK
No errors occurred
AccurateRip summary
Track 1 accurately ripped (confidence 3) [6816A42A] (AR v2)Track 2 accurately ripped (confidence 3) [C213CBC7] (AR v2)Track 3 accurately ripped (confidence 3) [519DCBE5] (AR v2)Track 4 accurately ripped (confidence 3) [31072DBA] (AR v2)Track 5 accurately ripped (confidence 3) [CD748D5B] (AR v2)Track 6 accurately ripped (confidence 3) [1429F5C3] (AR v2)Track 7 accurately ripped (confidence 3) [A09261EB] (AR v2)Track 8 accurately ripped (confidence 3) [51417CE7] (AR v2)Track 9 accurately ripped (confidence 3) [C16EA152] (AR v2)
All tracks accurately ripped
End of status report
==== Log checksum 43D52DAE4949D3CB5C57D9671958011F101FC540987575218EC6DE7C21CD96F4 ====
[teatrix.ru].t9956.torrent 
Торрент: Зарегистрирован [ 2015-10-25 20:37 ] · 95EF0CFD2297CD613ADC3A7B862A7A5BC9282204

Скачать .torrent

Скачать

24 KB

Статус: проверено
Скачан: 0 раз
Размер: 289 MB
terms.php



Быстрый ответ

Имя:

      
Для отправки сообщений необходимо включить JavaScript
Показать сообщения:    

Текущее время: 04-Дек 11:15

Часовой пояс: UTC + 3


Вы можете начинать темы
Вы можете отвечать на сообщения
Вы не можете редактировать свои сообщения
Вы не можете удалять свои сообщения
Вы не можете голосовать в опросах
Вы не можете прикреплять файлы к сообщениям
Вы можете скачивать файлы