(Classical) Дмитрий Шостакович - Концерт для виолончели с оркестром № 1 соч.107;Сергей Рахманинов - Соната для виолончели и фортепиано соч.19 (Sol Gabetta;Munchner Philharmoniker,Maazel;Oльга Керн) - 2012, FLAC (image+.cue) lossless


Статистика раздачи [Обновить пиров]
Размер:  272 MB   |    Зарегистрирован:  1 год 1 месяц   |    Скачан:  0 раз

Полного источника не было: Никогда

Личеров:  1  [  0 KB/s  ]   Подробная статистика пиров
 
   
 
 
 

[Цитировать]

Дмитрий Шостакович -
Концерт для виолончели с оркестром № 1 соч.107;
Сергей Рахманинов -
Соната для виолончели и фортепиано соч.19
(Sol Gabetta;Munchner Philharmoniker,Maazel;Oльга Керн)
Жанр: Classical
Страна-производитель диска: E.U.
Год издания диска: 2012
Издатель (лейбл): Sony Music Entertaiment
Номер по каталогу: 88725435752
Дата записи: September 2011, May 2012
Аудиокодек: FLAC
Тип рипа: image+.cue
Битрейт аудио: lossless
Продолжительность: 01:08:46
Источник: JVA
Наличие сканов в содержимом раздачи: да
Треклист:
Дмитрий Шостакович (1906-1975)
Концерт для виолончели с оркестром № 1 ми-бемоль мажор соч.107 (1959) (Live)
01. Allegretto (7:23)
02. Moderato (14:06)
03. Cadenza (5:57)
04. Allegro con moto (5:19)
Сергей Рахманинов (1873-1943)
Соната для виолончели и фортепиано соль минор соч.19 (1901)
05. Lento - Allegro moderato (13:15)
06. Allegro scherzando (6:34)
07. Andante (5:38)
08. Allegro mosso (10:31)
Исполнители:
tracks 1-4
Sol Gabetta - Violoncello
Munchner Philharmoniker
Lorin Maazel - Conductor

Live recording: Philharmonie im Gasteig, Munich, September 2011
tracks 5-8
Sol Gabetta - Violoncello
Olga Kern - Piano

Recording: Funkhaus Nalepastrasse Berlin, May 2012

Исполнители

Лог создания рипа

Exact Audio Copy V0.99 prebeta 5 from 4. May 2009
Отчёт EAC об извлечении, выполненном 21. апреля 2014, 15:15
Sol Gabetta / Schostakowitsch: Cellokonzert Nr. 1 op. 107 / Rachmaninov: Cellosonate op. 19
Дисковод: _NEC DVD_RW ND-4571A Adapter: 0 ID: 0
Режим чтения : ДостоверностьИспользование точного потока : ДаОтключение кэша аудио : ДаИспользование указателей C2 : Нет
Коррекция смещения при чтении : 48Способность читать области Lead-in и Lead-out : НетЗаполнение пропущенных сэмплов тишиной : ДаУдаление блоков с тишиной в начале и конце : НетПри вычислениях CRC использовались нулевые сэмплы : ДаИнтерфейс : Встроенный Win32-интерфейс для Win NT/2000
Выходной формат : Пользовательский кодировщикВыбранный битрейт : 768 kBit/sКачество : ВысокийДобавление ID3-тэга : НетУтилита сжатия : C:\Program Files\Exact Audio Copy\Flac\flac.exeДополнительные параметры : -6 -V -T "ARTIST=%a" -T "TITLE=%t" -T "ALBUM=%g" -T "DATE=%y" -T "TRACKNUMBER=%n" -T "GENRE=%m" -T "COMMENT=%e" %s -o %d
TOC извлечённого CD
Трек | Старт | Длительность | Начальный сектор | Конечный сектор --------------------------------------------------------------------- 1 | 0:00.00 | 7:23.09 | 0 | 33233 2 | 7:23.09 | 14:06.43 | 33234 | 96726 3 | 21:29.52 | 5:57.22 | 96727 | 123523 4 | 27:26.74 | 5:19.72 | 123524 | 147520 5 | 32:46.71 | 13:15.19 | 147521 | 207164 6 | 46:02.15 | 6:34.09 | 207165 | 236723 7 | 52:36.24 | 5:38.34 | 236724 | 262107 8 | 58:14.58 | 10:31.33 | 262108 | 309465
Характеристики диапазона извлечения и сообщения об ошибках
Выбранный диапазон
Имя файла F:\EAC\Sol Gabetta - Schostakowitsch&Rachmaninov\S.Gabetta - Schostakowitsch_Rachmaninov.wav
Пиковый уровень 98.8 % Качество диапазона 99.9 % CRC копии 742FA144 Копирование... OK
Ошибок не произошло
AccurateRip: сводка
Трек 1 точное извлечение (доверие 3) [AF348602]Трек 2 точное извлечение (доверие 3) [5EA711B8]Трек 3 точное извлечение (доверие 3) [9800DCC5]Трек 4 точное извлечение (доверие 3) [D852617C]Трек 5 точное извлечение (доверие 3) [120898F1]Трек 6 точное извлечение (доверие 3) [E3DA8210]Трек 7 точное извлечение (доверие 3) [71360869]Трек 8 точное извлечение (доверие 3) [83CCAAFF]
Все треки извлечены точно
Конец отчёта

Лог проверки качества

Скриншот спектра частот

[teatrix.ru].t9957.torrent 
Торрент: Зарегистрирован [ 2015-10-25 20:37 ] · 2FF2AC057E10B693782365ED295340E2A101B5D8

Скачать .torrent

Скачать

12 KB

Статус: проверено
Скачан: 0 раз
Размер: 272 MB
terms.php



Быстрый ответ

Имя:

      
Для отправки сообщений необходимо включить JavaScript
Показать сообщения:    

Текущее время: 10-Дек 21:37

Часовой пояс: UTC + 3


Вы можете начинать темы
Вы можете отвечать на сообщения
Вы не можете редактировать свои сообщения
Вы не можете удалять свои сообщения
Вы не можете голосовать в опросах
Вы не можете прикреплять файлы к сообщениям
Вы можете скачивать файлы