(Classical, 20th century) Сергей Прокофьев - Концерт и Симфония-концерт для виолончели с оркестром - Alban Gerhardt, Bergen Philharmonic Orchestra, Andrew Litton - 2009, FLAC (image+.cue) lossless


Статистика раздачи [Обновить пиров]
Размер:  286 MB   |    Зарегистрирован:  1 год 1 месяц   |    Скачан:  0 раз

Полного источника не было: Никогда

 
   
 
 
 

[Цитировать]

Сергей Прокофьев - Концерт и Симфония-концерт для виолончели с оркестром - Alban Gerhardt, Bergen Philharmonic Orchestra, Andrew Litton
Жанр: Classical, 20th century
Страна-производитель диска: UK
Год издания диска: 2009
Издатель (лейбл): Hyperion
Номер по каталогу: CDA67705
Дата записи: 2008
Аудиокодек: FLAC
Тип рипа: image+.cue
Битрейт аудио: lossless
Продолжительность: 73:11
Источник: собственный рип
Наличие сканов в содержимом раздачи: да
Треклист:
Сергей Сергеевич Прокофьев (1891-1953)
[1]-[3] Концерт для виолончели с оркестром ми минор, Op. 58
[4]-[6] Симфония-концерт для виолончели с оркестром ми минор, Op. 125
Исполнители:
Alban Gerhardt cello
Bergen Philharmonic Orchestra
Andrew Litton
conductor

Лог создания рипа

Exact Audio Copy V1.0 beta 3 from 29. August 2011
EAC extraction logfile from 14. April 2014, 2:13
Alban Gerhardt; Bergen Philharmonic Orchestra, Andrew Litton / Prokofiev - Cello Concerto; Symphony-Concerto
Used drive : HL-DT-STDVDRAM GSA-4083N Adapter: 1 ID: 0
Read mode : SecureUtilize accurate stream : YesDefeat audio cache : YesMake use of C2 pointers : No
Read offset correction : 667Overread into Lead-In and Lead-Out : NoFill up missing offset samples with silence : YesDelete leading and trailing silent blocks : NoNull samples used in CRC calculations : YesUsed interface : Native Win32 interface for Win NT & 2000
Used output format : User Defined EncoderSelected bitrate : 896 kBit/sQuality : HighAdd ID3 tag : NoCommand line compressor : C:\Program Files\Exact Audio Copy\Flac\flac.exeAdditional command line options : -V -8 %source%
TOC of the extracted CD
Track | Start | Length | Start sector | End sector --------------------------------------------------------- 1 | 0:00.00 | 5:36.68 | 0 | 25267 2 | 5:36.68 | 11:40.12 | 25268 | 77779 3 | 17:17.05 | 19:01.66 | 77780 | 163420 4 | 36:18.71 | 9:53.49 | 163421 | 207944 5 | 46:12.45 | 16:56.07 | 207945 | 284151 6 | 63:08.52 | 10:00.26 | 284152 | 329177
Range status and errors
Selected range
Filename J:\New Music\CDA67705 - Prokofiev - Cello Concerto; Symphony-Concerto\Prokofiev - Cello Concerto; Symphony-Concerto.wav
Peak level 100.0 % Extraction speed 2.6 X Range quality 99.9 % Test CRC 7B83FED0 Copy CRC 7B83FED0 Copy OK
No errors occurred
AccurateRip summary
Track 1 accurately ripped (confidence 3) [B8F0DAE1] (AR v2)Track 2 accurately ripped (confidence 3) [92D3A273] (AR v2)Track 3 accurately ripped (confidence 3) [C702D279] (AR v2)Track 4 accurately ripped (confidence 3) [925F339A] (AR v2)Track 5 accurately ripped (confidence 2) [CBCA04A6] (AR v2)Track 6 accurately ripped (confidence 3) [B1EFD6B6] (AR v2)
All tracks accurately ripped
End of status report
==== Log checksum 75E4306021419E60519A555A7285F9E7CD36032B4C476B85CCF09AF86F21BC88 ====
[teatrix.ru].t9959.torrent 
Торрент: Зарегистрирован [ 2015-10-25 20:37 ] · 524B121990978F9633C14E8E270A0194007FA956

Скачать .torrent

Скачать

24 KB

Статус: проверено
Скачан: 0 раз
Размер: 286 MB
terms.php



Быстрый ответ

Имя:

      
Для отправки сообщений необходимо включить JavaScript
Показать сообщения:    

Текущее время: 10-Дек 00:12

Часовой пояс: UTC + 3


Вы можете начинать темы
Вы можете отвечать на сообщения
Вы не можете редактировать свои сообщения
Вы не можете удалять свои сообщения
Вы не можете голосовать в опросах
Вы не можете прикреплять файлы к сообщениям
Вы можете скачивать файлы