(Classical) Levitation - Eötvös (Eotvos), Nielsen, Sallinen: Works for Clarinet & Orchestra - Christoffer Sundqvist, Kullervo Kojo, Tommi Aalto; Finnish Radio Symphony Orchestra, Hannu Lintu, Okko Kamu - 2011, FLAC (image+.cue) lossless


Статистика раздачи [Обновить пиров]
Размер:  278 MB   |    Зарегистрирован:  1 год 1 месяц   |    Скачан:  1 раз

Полного источника не было: 7 месяцев 26 дней

 
   
 
 
 

[Цитировать]

Levitation - Eötvös (Eotvos), Nielsen, Sallinen: Works for Clarinet & Orchestra - Christoffer Sundqvist, Kullervo Kojo, Tommi Aalto; Finnish Radio Symphony Orchestra, Hannu Lintu, Okko Kamu
Жанр: Classical
Страна-производитель диска: Finland
Год издания диска: 2011
Издатель (лейбл): Alba Records
Номер по каталогу: ABCD 314
Дата записи: 2009, 2010
Аудиокодек: FLAC
Тип рипа: image+.cue
Битрейт аудио: lossless
Продолжительность: 68:11
Источник: собственный рип
Наличие сканов в содержимом раздачи: да
Треклист:
Peter Eötvös (b.1944)
[1]-[4] Levitation (2007)
Carl Nielsen (1865-1931)
[5]-[8] Clarinet Concerto, Op.57 (1928)
Aulis Sallinen (b.1935)
[9]-[11] Concerto for Clarinet, Viola and Chamber Orchestra, Op.91 (2006-2007)
Исполнители:
Christoffer Sundqvist clarinet
Kullervo Kojo clarinet [1]-[4]
Jani Niinimäki snare drum [5]-[8]
Tommi Aalto viola [9]-[11]
Finnish Radio Symphony Orchestra
Hannu Lintu
conductor [1]-[8]
Okko Kamu conductor [9]-[11]

Лог создания рипа

Exact Audio Copy V1.0 beta 3 from 29. August 2011
EAC extraction logfile from 6. March 2014, 17:34
Christoffer Sundqvist, Finnish Radio Symphony Orchestra / Eötvös, Nielsen, Sallinen - Levitation
Used drive : HL-DT-STDVDRRW GWA-4164B Adapter: 5 ID: 0
Read mode : SecureUtilize accurate stream : YesDefeat audio cache : YesMake use of C2 pointers : No
Read offset correction : 102Overread into Lead-In and Lead-Out : NoFill up missing offset samples with silence : YesDelete leading and trailing silent blocks : NoNull samples used in CRC calculations : YesUsed interface : Native Win32 interface for Win NT & 2000
Used output format : User Defined EncoderSelected bitrate : 896 kBit/sQuality : HighAdd ID3 tag : NoCommand line compressor : C:\Program Files\Exact Audio Copy\FLAC\FLAC.EXEAdditional command line options : -V -8 %source%
TOC of the extracted CD
Track | Start | Length | Start sector | End sector --------------------------------------------------------- 1 | 0:00.00 | 2:56.13 | 0 | 13212 2 | 2:56.13 | 6:33.23 | 13213 | 42710 3 | 9:29.36 | 7:11.60 | 42711 | 75095 4 | 16:41.21 | 3:22.62 | 75096 | 90307 5 | 20:04.08 | 8:18.10 | 90308 | 127667 6 | 28:22.18 | 5:09.44 | 127668 | 150886 7 | 33:31.62 | 5:34.14 | 150887 | 175950 8 | 39:06.01 | 5:09.05 | 175951 | 199130 9 | 44:15.06 | 9:04.17 | 199131 | 239947 10 | 53:19.23 | 5:37.15 | 239948 | 265237 11 | 58:56.38 | 9:12.24 | 265238 | 306661
Range status and errors
Selected range
Filename D:\temp\Music\Eotvos, Nielsen, Sallinen - Levitation\Eotvos, Nielsen, Sallinen - Levitation.wav
Peak level 97.7 % Extraction speed 3.1 X Range quality 100.0 % Test CRC 19A040E8 Copy CRC 19A040E8 Copy OK
No errors occurred
AccurateRip summary
Track 1 not present in databaseTrack 2 not present in databaseTrack 3 not present in databaseTrack 4 not present in databaseTrack 5 not present in databaseTrack 6 not present in databaseTrack 7 not present in databaseTrack 8 not present in databaseTrack 9 not present in databaseTrack 10 not present in databaseTrack 11 not present in database
None of the tracks are present in the AccurateRip database
End of status report
==== Log checksum A9194DE8BB1B0C6DCF82235F9491E5EEE3A256D959FF79AF67454E51E57F80D8 ====
[teatrix.ru].t9960.torrent 
Торрент: Зарегистрирован [ 2015-10-25 20:37 ] · E959CB717BC683DDCA817B9783C618C3B5F1017E

Скачать .torrent

Скачать

23 KB

Статус: проверено
Скачан: 1 раз
Размер: 278 MB
terms.php



Быстрый ответ

Имя:

      
Для отправки сообщений необходимо включить JavaScript
Показать сообщения:    

Текущее время: 04-Дек 06:53

Часовой пояс: UTC + 3


Вы можете начинать темы
Вы можете отвечать на сообщения
Вы не можете редактировать свои сообщения
Вы не можете удалять свои сообщения
Вы не можете голосовать в опросах
Вы не можете прикреплять файлы к сообщениям
Вы можете скачивать файлы