(Classical) Antonio Vivaldi - 6 Flute Concertos, Op. 10 (Aurele Nicolet, I Musici) - 1986, FLAC (tracks+.cue) lossless


Статистика раздачи [Обновить пиров]
Размер:  229 MB   |    Зарегистрирован:  1 год 1 месяц   |    Скачан:  0 раз

Полного источника не было: Никогда

 
   
 
 
 

[Цитировать]

Antonio Vivaldi - 6 Flute Concertos, Op. 10 (Aurele Nicolet, I Musici, 1986)
Жанр: Classical
Страна-производитель диска: Japan
Год издания диска: 1990
Издатель (лейбл): Philips
Номер по каталогу: 420 188-2 / PHCP-1140
Дата записи: 1986
Аудиокодек: FLAC
Тип рипа: tracks+.cue
Битрейт аудио: lossless
Продолжительность: 00:50:12
Источник: собственный рип
Наличие сканов в содержимом раздачи: да, фото
Треклист:
Flötenkonzert Nr. 1 F-dur RV 433 'La tempesta die mare'
01. 1. Allegro (2:50)
02. 2. Largo (1:55)
03. 3. Presto (2:13)
Flötenkonzert Nr. 2 g-moll RV 439 'La notte'
04. 1. Largo (2:19)
05. 2. Fantasmi. Presto (0:50)
06. 3. Largo (1:04)
07. 4. Presto (1:08)
08. 5. Il Sonno (2:04)
09. 6. Allegro (2:23)
Flötenkonzert Nr. 3 G-dur RV 428 'Il gardellino'
10. 1. Allegro (3:53)
11. 2. Cantabile (3:25)
12. 3. Allegro (2:54)
Flötenkonzert Nr. 4 G-dur RV 435
13. 1. Allegro (2:29)
14. 2. Largo (2:05)
15. 3. Allegro (2:22)
Flötenkonzert Nr. 5 F-dur RV 434
16. 1. Allegro (3:14)
17. 2. Largo (2:52)
18. 3. Allegro (1:56)
Flötenkonzert Nr. 6 G-dur RV 437
19. 1. Allegro (3:57)
20. 2. Largo (1:58)
21. 3. Allegro (2:22)
Исполнители:
I Musici
Aurele Nicolet - flute

Лог создания рипа

Exact Audio Copy V1.0 beta 1 from 15. November 2010
EAC extraction logfile from 25. April 2014, 19:40
Aurele Nicolet, I Musici / Antonio Vivaldi ~ Flotenkonzerte op. 10
Used drive : Optiarc DVD RW AD-7200A Adapter: 0 ID: 0
Read mode : SecureUtilize accurate stream : YesDefeat audio cache : YesMake use of C2 pointers : No
Read offset correction : 48Overread into Lead-In and Lead-Out : NoFill up missing offset samples with silence : YesDelete leading and trailing silent blocks : NoNull samples used in CRC calculations : YesUsed interface : Native Win32 interface for Win NT & 2000Gap handling : Appended to previous track
Used output format : User Defined EncoderSelected bitrate : 768 kBit/sQuality : HighAdd ID3 tag : NoCommand line compressor : C:\Program Files\Exact Audio Copy\Flac\flac.exeAdditional command line options : -8 -V -T "ARTIST=%a" -T "TITLE=%t" -T "ALBUM=%g" -T "DATE=%y" -T "TRACKNUMBER=%n" -T "TOTALTRACKS=%x" -T "GENRE=%m" -T "ALBUMARTIST=%v" -T "ALBUM ARTIST=%v" -T "COMMENT=EAC Secure Mode, Test & Copy, AccurateRip, FLAC -8" %s
TOC of the extracted CD
Track | Start | Length | Start sector | End sector --------------------------------------------------------- 1 | 0:00.00 | 2:49.40 | 0 | 12714 2 | 2:49.40 | 1:54.50 | 12715 | 21314 3 | 4:44.15 | 2:13.00 | 21315 | 31289 4 | 6:57.15 | 2:19.37 | 31290 | 41751 5 | 9:16.52 | 0:50.05 | 41752 | 45506 6 | 10:06.57 | 1:03.70 | 45507 | 50301 7 | 11:10.52 | 1:07.63 | 50302 | 55389 8 | 12:18.40 | 2:03.50 | 55390 | 64664 9 | 14:22.15 | 2:23.00 | 64665 | 75389 10 | 16:45.15 | 3:53.37 | 75390 | 92901 11 | 20:38.52 | 3:25.00 | 92902 | 108276 12 | 24:03.52 | 2:53.38 | 108277 | 121289 13 | 26:57.15 | 2:29.12 | 121290 | 132476 14 | 29:26.27 | 2:05.25 | 132477 | 141876 15 | 31:31.52 | 2:21.38 | 141877 | 152489 16 | 33:53.15 | 3:14.00 | 152490 | 167039 17 | 37:07.15 | 2:52.25 | 167040 | 179964 18 | 39:59.40 | 1:55.50 | 179965 | 188639 19 | 41:55.15 | 3:56.62 | 188640 | 206401 20 | 45:52.02 | 1:58.13 | 206402 | 215264 21 | 47:50.15 | 2:22.00 | 215265 | 225914
Track 1
Filename D:\Vivaldi - 6 Flute Concertos, Op. 10 (1986) [FLAC] {Aurele Nicolet, I Musici}\01 - Flotenkonzert Nr. 1 F-dur RV 433 'La tempesta die mare' - 1. Allegro.wav
Pre-gap length 0:00:02.00
Peak level 75.0 % Extraction speed 2.2 X Track quality 100.0 % Test CRC 807876F0 Copy CRC 807876F0 Accurately ripped (confidence 1) [FB645B94] Copy OK
Track 2
Filename D:\Vivaldi - 6 Flute Concertos, Op. 10 (1986) [FLAC] {Aurele Nicolet, I Musici}\02 - Flotenkonzert Nr. 1 F-dur RV 433 'La tempesta die mare' - 2. Largo.wav
Peak level 50.1 % Extraction speed 2.1 X Track quality 100.0 % Test CRC 130A23F0 Copy CRC 130A23F0 Accurately ripped (confidence 1) [B78E39CC] Copy OK
Track 3
Filename D:\Vivaldi - 6 Flute Concertos, Op. 10 (1986) [FLAC] {Aurele Nicolet, I Musici}\03 - Flotenkonzert Nr. 1 F-dur RV 433 'La tempesta die mare' - 3. Presto.wav
Peak level 67.6 % Extraction speed 2.3 X Track quality 100.0 % Test CRC 56D384E2 Copy CRC 56D384E2 Accurately ripped (confidence 1) [023F35CB] Copy OK
Track 4
Filename D:\Vivaldi - 6 Flute Concertos, Op. 10 (1986) [FLAC] {Aurele Nicolet, I Musici}\04 - Flotenkonzert Nr. 2 g-moll RV 439 'La notte' - 1. Largo.wav
Pre-gap length 0:00:07.00
Peak level 42.5 % Extraction speed 1.8 X Track quality 100.0 % Test CRC B1434A5C Copy CRC B1434A5C Accurately ripped (confidence 1) [4C471262] Copy OK
Track 5
Filename D:\Vivaldi - 6 Flute Concertos, Op. 10 (1986) [FLAC] {Aurele Nicolet, I Musici}\05 - Flotenkonzert Nr. 2 g-moll RV 439 'La notte' - 2. Fantasmi. Presto.wav
Peak level 70.5 % Extraction speed 1.3 X Track quality 100.0 % Test CRC FEF4498F Copy CRC FEF4498F Cannot be verified as accurate (confidence 1) [24844877], AccurateRip returned [4F7B449B] Copy OK
Track 6
Filename D:\Vivaldi - 6 Flute Concertos, Op. 10 (1986) [FLAC] {Aurele Nicolet, I Musici}\06 - Flotenkonzert Nr. 2 g-moll RV 439 'La notte' - 3. Largo.wav
Peak level 33.9 % Extraction speed 2.0 X Track quality 100.0 % Test CRC B63AD80D Copy CRC B63AD80D Accurately ripped (confidence 1) [29E7BFD3] Copy OK
Track 7
Filename D:\Vivaldi - 6 Flute Concertos, Op. 10 (1986) [FLAC] {Aurele Nicolet, I Musici}\07 - Flotenkonzert Nr. 2 g-moll RV 439 'La notte' - 4. Presto.wav
Peak level 81.3 % Extraction speed 2.2 X Track quality 100.0 % Test CRC 32F6C87A Copy CRC 32F6C87A Accurately ripped (confidence 1) [B6DEA6C4] Copy OK
Track 8
Filename D:\Vivaldi - 6 Flute Concertos, Op. 10 (1986) [FLAC] {Aurele Nicolet, I Musici}\08 - Flotenkonzert Nr. 2 g-moll RV 439 'La notte' - 5. Il Sonno.wav
Peak level 25.7 % Extraction speed 2.6 X Track quality 100.0 % Test CRC 8C34F4D2 Copy CRC 8C34F4D2 Accurately ripped (confidence 1) [5B143D66] Copy OK
Track 9
Filename D:\Vivaldi - 6 Flute Concertos, Op. 10 (1986) [FLAC] {Aurele Nicolet, I Musici}\09 - Flotenkonzert Nr. 2 g-moll RV 439 'La notte' - 6. Allegro.wav
Peak level 69.7 % Extraction speed 2.8 X Track quality 100.0 % Test CRC 061068DE Copy CRC 061068DE Accurately ripped (confidence 1) [3C173A9C] Copy OK
Track 10
Filename D:\Vivaldi - 6 Flute Concertos, Op. 10 (1986) [FLAC] {Aurele Nicolet, I Musici}\10 - Flotenkonzert Nr. 3 G-dur RV 428 'Il gardellino' - 1. Allegro.wav
Pre-gap length 0:00:06.00
Peak level 69.6 % Extraction speed 3.3 X Track quality 100.0 % Test CRC A0320FA2 Copy CRC A0320FA2 Accurately ripped (confidence 1) [C519089B] Copy OK
Track 11
Filename D:\Vivaldi - 6 Flute Concertos, Op. 10 (1986) [FLAC] {Aurele Nicolet, I Musici}\11 - Flotenkonzert Nr. 3 G-dur RV 428 'Il gardellino' - 2. Cantabile.wav
Peak level 43.5 % Extraction speed 3.4 X Track quality 100.0 % Test CRC 3BCBA5EF Copy CRC 3BCBA5EF Accurately ripped (confidence 1) [14D886E3] Copy OK
Track 12
Filename D:\Vivaldi - 6 Flute Concertos, Op. 10 (1986) [FLAC] {Aurele Nicolet, I Musici}\12 - Flotenkonzert Nr. 3 G-dur RV 428 'Il gardellino' - 3. Allegro.wav
Peak level 52.7 % Extraction speed 3.5 X Track quality 100.0 % Test CRC 4B59DBD0 Copy CRC 4B59DBD0 Accurately ripped (confidence 1) [47C6B3EB] Copy OK
Track 13
Filename D:\Vivaldi - 6 Flute Concertos, Op. 10 (1986) [FLAC] {Aurele Nicolet, I Musici}\13 - Flotenkonzert Nr. 4 G-dur RV 435 - 1. Allegro.wav
Pre-gap length 0:00:07.00
Peak level 56.7 % Extraction speed 3.4 X Track quality 100.0 % Test CRC 0E4247CC Copy CRC 0E4247CC Accurately ripped (confidence 1) [A48D9CED] Copy OK
Track 14
Filename D:\Vivaldi - 6 Flute Concertos, Op. 10 (1986) [FLAC] {Aurele Nicolet, I Musici}\14 - Flotenkonzert Nr. 4 G-dur RV 435 - 2. Largo.wav
Peak level 42.6 % Extraction speed 3.4 X Track quality 100.0 % Test CRC FDD03706 Copy CRC FDD03706 Accurately ripped (confidence 1) [E9671EF0] Copy OK
Track 15
Filename D:\Vivaldi - 6 Flute Concertos, Op. 10 (1986) [FLAC] {Aurele Nicolet, I Musici}\15 - Flotenkonzert Nr. 4 G-dur RV 435 - 3. Allegro.wav
Peak level 69.6 % Extraction speed 3.5 X Track quality 100.0 % Test CRC 617043E5 Copy CRC 617043E5 Accurately ripped (confidence 1) [18A6BB9B] Copy OK
Track 16
Filename D:\Vivaldi - 6 Flute Concertos, Op. 10 (1986) [FLAC] {Aurele Nicolet, I Musici}\16 - Flotenkonzert Nr. 5 F-dur RV 434 - 1. Allegro.wav
Pre-gap length 0:00:07.00
Peak level 38.7 % Extraction speed 3.9 X Track quality 100.0 % Test CRC 6E59F32B Copy CRC 6E59F32B Accurately ripped (confidence 1) [BA535D79] Copy OK
Track 17
Filename D:\Vivaldi - 6 Flute Concertos, Op. 10 (1986) [FLAC] {Aurele Nicolet, I Musici}\17 - Flotenkonzert Nr. 5 F-dur RV 434 - 2. Largo.wav
Peak level 40.8 % Extraction speed 3.3 X Track quality 99.9 % Test CRC 7DB22A6B Copy CRC 7DB22A6B Accurately ripped (confidence 1) [17D4D707] Copy OK
Track 18
Filename D:\Vivaldi - 6 Flute Concertos, Op. 10 (1986) [FLAC] {Aurele Nicolet, I Musici}\18 - Flotenkonzert Nr. 5 F-dur RV 434 - 3. Allegro.wav
Peak level 67.7 % Extraction speed 3.7 X Track quality 100.0 % Test CRC 50C16B4F Copy CRC 50C16B4F Accurately ripped (confidence 1) [DA0A1E6D] Copy OK
Track 19
Filename D:\Vivaldi - 6 Flute Concertos, Op. 10 (1986) [FLAC] {Aurele Nicolet, I Musici}\19 - Flotenkonzert Nr. 6 G-dur RV 437 - 1. Allegro.wav
Pre-gap length 0:00:07.00
Peak level 71.8 % Extraction speed 4.4 X Track quality 100.0 % Test CRC 81EEF03A Copy CRC 81EEF03A Accurately ripped (confidence 1) [070FE623] Copy OK
Track 20
Filename D:\Vivaldi - 6 Flute Concertos, Op. 10 (1986) [FLAC] {Aurele Nicolet, I Musici}\20 - Flotenkonzert Nr. 6 G-dur RV 437 - 2. Largo.wav
Peak level 49.5 % Extraction speed 3.8 X Track quality 100.0 % Test CRC 83A1D0EC Copy CRC 83A1D0EC Accurately ripped (confidence 1) [3B8BE27C] Copy OK
Track 21
Filename D:\Vivaldi - 6 Flute Concertos, Op. 10 (1986) [FLAC] {Aurele Nicolet, I Musici}\21 - Flotenkonzert Nr. 6 G-dur RV 437 - 3. Allegro.wav
Peak level 48.4 % Extraction speed 4.1 X Track quality 100.0 % Test CRC 21A52F68 Copy CRC 21A52F68 Accurately ripped (confidence 1) [47D7BBAA] Copy OK
20 track(s) accurately ripped 1 track(s) could not be verified as accurate
Some tracks could not be verified as accurate
No errors occurred
End of status report
==== Log checksum 9A417487B41644346CD80A984ECB18D523070254253886561CDC97243CA6F128 ====

Содержание индексной карты (.CUE)

REM GENRE FlotenkonzertREM DATE 1986REM DISCID 230BC415REM COMMENT "ExactAudioCopy v1.0b1"PERFORMER "Aurele Nicolet, I Musici"TITLE "Antonio Vivaldi ~ Flotenkonzerte op. 10"FILE "01 - Flotenkonzert Nr. 1 F-dur RV 433 'La tempesta die mare' - 1. Allegro.wav" WAVE TRACK 01 AUDIO TITLE "Flotenkonzert Nr. 1 F-dur RV 433 'La tempesta die mare' - 1. Allegro" PERFORMER "Aurele Nicolet, I Musici" INDEX 01 00:00:00FILE "02 - Flotenkonzert Nr. 1 F-dur RV 433 'La tempesta die mare' - 2. Largo.wav" WAVE TRACK 02 AUDIO TITLE "Flotenkonzert Nr. 1 F-dur RV 433 'La tempesta die mare' - 2. Largo" PERFORMER "Aurele Nicolet, I Musici" INDEX 01 00:00:00FILE "03 - Flotenkonzert Nr. 1 F-dur RV 433 'La tempesta die mare' - 3. Presto.wav" WAVE TRACK 03 AUDIO TITLE "Flotenkonzert Nr. 1 F-dur RV 433 'La tempesta die mare' - 3. Presto" PERFORMER "Aurele Nicolet, I Musici" INDEX 01 00:00:00 TRACK 04 AUDIO TITLE "Flotenkonzert Nr. 2 g-moll RV 439 'La notte' - 1. Largo" PERFORMER "Aurele Nicolet, I Musici" INDEX 00 02:06:00FILE "04 - Flotenkonzert Nr. 2 g-moll RV 439 'La notte' - 1. Largo.wav" WAVE INDEX 01 00:00:00FILE "05 - Flotenkonzert Nr. 2 g-moll RV 439 'La notte' - 2. Fantasmi. Presto.wav" WAVE TRACK 05 AUDIO TITLE "Flotenkonzert Nr. 2 g-moll RV 439 'La notte' - 2. Fantasmi. Presto" PERFORMER "Aurele Nicolet, I Musici" INDEX 01 00:00:00FILE "06 - Flotenkonzert Nr. 2 g-moll RV 439 'La notte' - 3. Largo.wav" WAVE TRACK 06 AUDIO TITLE "Flotenkonzert Nr. 2 g-moll RV 439 'La notte' - 3. Largo" PERFORMER "Aurele Nicolet, I Musici" INDEX 01 00:00:00FILE "07 - Flotenkonzert Nr. 2 g-moll RV 439 'La notte' - 4. Presto.wav" WAVE TRACK 07 AUDIO TITLE "Flotenkonzert Nr. 2 g-moll RV 439 'La notte' - 4. Presto" PERFORMER "Aurele Nicolet, I Musici" INDEX 01 00:00:00FILE "08 - Flotenkonzert Nr. 2 g-moll RV 439 'La notte' - 5. Il Sonno.wav" WAVE TRACK 08 AUDIO TITLE "Flotenkonzert Nr. 2 g-moll RV 439 'La notte' - 5. Il Sonno" PERFORMER "Aurele Nicolet, I Musici" INDEX 01 00:00:00FILE "09 - Flotenkonzert Nr. 2 g-moll RV 439 'La notte' - 6. Allegro.wav" WAVE TRACK 09 AUDIO TITLE "Flotenkonzert Nr. 2 g-moll RV 439 'La notte' - 6. Allegro" PERFORMER "Aurele Nicolet, I Musici" INDEX 01 00:00:00 TRACK 10 AUDIO TITLE "Flotenkonzert Nr. 3 G-dur RV 428 'Il gardellino' - 1. Allegro" PERFORMER "Aurele Nicolet, I Musici" INDEX 00 02:17:00FILE "10 - Flotenkonzert Nr. 3 G-dur RV 428 'Il gardellino' - 1. Allegro.wav" WAVE INDEX 01 00:00:00FILE "11 - Flotenkonzert Nr. 3 G-dur RV 428 'Il gardellino' - 2. Cantabile.wav" WAVE TRACK 11 AUDIO TITLE "Flotenkonzert Nr. 3 G-dur RV 428 'Il gardellino' - 2. Cantabile" PERFORMER "Aurele Nicolet, I Musici" INDEX 01 00:00:00FILE "12 - Flotenkonzert Nr. 3 G-dur RV 428 'Il gardellino' - 3. Allegro.wav" WAVE TRACK 12 AUDIO TITLE "Flotenkonzert Nr. 3 G-dur RV 428 'Il gardellino' - 3. Allegro" PERFORMER "Aurele Nicolet, I Musici" INDEX 01 00:00:00 TRACK 13 AUDIO TITLE "Flotenkonzert Nr. 4 G-dur RV 435 - 1. Allegro" PERFORMER "Aurele Nicolet, I Musici" INDEX 00 02:46:38FILE "13 - Flotenkonzert Nr. 4 G-dur RV 435 - 1. Allegro.wav" WAVE INDEX 01 00:00:00FILE "14 - Flotenkonzert Nr. 4 G-dur RV 435 - 2. Largo.wav" WAVE TRACK 14 AUDIO TITLE "Flotenkonzert Nr. 4 G-dur RV 435 - 2. Largo" PERFORMER "Aurele Nicolet, I Musici" INDEX 01 00:00:00FILE "15 - Flotenkonzert Nr. 4 G-dur RV 435 - 3. Allegro.wav" WAVE TRACK 15 AUDIO TITLE "Flotenkonzert Nr. 4 G-dur RV 435 - 3. Allegro" PERFORMER "Aurele Nicolet, I Musici" INDEX 01 00:00:00 TRACK 16 AUDIO TITLE "Flotenkonzert Nr. 5 F-dur RV 434 - 1. Allegro" PERFORMER "Aurele Nicolet, I Musici" INDEX 00 02:14:38FILE "16 - Flotenkonzert Nr. 5 F-dur RV 434 - 1. Allegro.wav" WAVE INDEX 01 00:00:00FILE "17 - Flotenkonzert Nr. 5 F-dur RV 434 - 2. Largo.wav" WAVE TRACK 17 AUDIO TITLE "Flotenkonzert Nr. 5 F-dur RV 434 - 2. Largo" PERFORMER "Aurele Nicolet, I Musici" INDEX 01 00:00:00FILE "18 - Flotenkonzert Nr. 5 F-dur RV 434 - 3. Allegro.wav" WAVE TRACK 18 AUDIO TITLE "Flotenkonzert Nr. 5 F-dur RV 434 - 3. Allegro" PERFORMER "Aurele Nicolet, I Musici" INDEX 01 00:00:00 TRACK 19 AUDIO TITLE "Flotenkonzert Nr. 6 G-dur RV 437 - 1. Allegro" PERFORMER "Aurele Nicolet, I Musici" INDEX 00 01:48:50FILE "19 - Flotenkonzert Nr. 6 G-dur RV 437 - 1. Allegro.wav" WAVE INDEX 01 00:00:00FILE "20 - Flotenkonzert Nr. 6 G-dur RV 437 - 2. Largo.wav" WAVE TRACK 20 AUDIO TITLE "Flotenkonzert Nr. 6 G-dur RV 437 - 2. Largo" PERFORMER "Aurele Nicolet, I Musici" INDEX 01 00:00:00FILE "21 - Flotenkonzert Nr. 6 G-dur RV 437 - 3. Allegro.wav" WAVE TRACK 21 AUDIO TITLE "Flotenkonzert Nr. 6 G-dur RV 437 - 3. Allegro" PERFORMER "Aurele Nicolet, I Musici" INDEX 01 00:00:00

об альбоме (сборнике)

This CD is a favorite for quiet times, whether reading or just looking at the sky and contemplating;The 6 Opus 10 concertos are filled with beauty, and have movements, like the Largo from Concerto # 2,"La Notte," that are extraordinary, especially in this fluid, exquisite performance by Aurele Nicolet andthe legendary I Musici.Nicolet, who was born in Switzerland in 1926, is a master virtuoso who was First Flutist with theBerlin Philharmonic Orchestraunder Furtwangler in the 50's, as well as having an international concert career.I Musici have been performing and recording since 1952,and are for my money, the preeminent interpreters of Vivaldi, and togetherI Musici and Nicolet create musical magic.The booklet insert notes state that the transverse flute was somewhat of a "novelty instrument"in the Venice of Vivaldi's day,and he introduced it to the city in 1727 in the opera "Orlando." These Opus 10 concertos werepublished in 1728 in Amsterdam,where the instrument was already popular, and Vivaldi a well known composer. This recording wasmade in 1986 in the Swiss town of La Chaux-de-Fonds. ~ by Alejandra Vernon, Amazon
[teatrix.ru].t9961.torrent 
Торрент: Зарегистрирован [ 2015-10-25 20:37 ] · 54CBB7BC7F5DE757B5377A83AD3AAE3835230AC2

Скачать .torrent

Скачать

21 KB

Статус: проверено
Скачан: 0 раз
Размер: 229 MB
terms.php



Быстрый ответ

Имя:

      
Для отправки сообщений необходимо включить JavaScript
Показать сообщения:    

Текущее время: 10-Дек 19:42

Часовой пояс: UTC + 3


Вы можете начинать темы
Вы можете отвечать на сообщения
Вы не можете редактировать свои сообщения
Вы не можете удалять свои сообщения
Вы не можете голосовать в опросах
Вы не можете прикреплять файлы к сообщениям
Вы можете скачивать файлы