(Violin Concerto) Martinu - Complete Works for Violin & Orchestra - Hogwood, Matousek, Czech PO - 2005, FLAC (image+.cue) lossless


Статистика раздачи [Обновить пиров]
Размер:  1.05 GB   |    Зарегистрирован:  1 год 1 месяц   |    Скачан:  0 раз

Полного источника не было: Никогда

 
   
 
 
 

[Цитировать]

Bohuslav MartinuComplete Works for Violin & Orchestra - Hogwood, Matoušek, Czech PO

Volume 1

Жанр: Violin Concerto
Страна-производитель диска: Great Britain
Год издания диска: 2005
Издатель (лейбл): Hyperion
Номер по каталогу: CDA 67671
Дата записи: 2004
Аудиокодек: FLAC
Тип рипа: image+.cue
Битрейт аудио: lossless
Продолжительность: 55:06
Источник: скачано с web
Важная информация: рип не мой, все благодарности оригинальному аплоудеру / Important Note: not my rip, all credits to the original uploader
Наличие сканов в содержимом раздачи: да
Треклист:
[01]-[03] Concerto for flute, violin and orchestra H.252
[04]-[06] Duo concertante for two violins and orchestra H.264
[07]-[09] Concerto for two violins and orchestra H.329
Исполнители:
Bohuslav Matoušek, violin
Czech Philharmonic Orchestra, Christopher Hogwood

Лог создания рипа

Exact Audio Copy V0.99 prebeta 1 from 25. May 2007
Archivo Log de extracciones desde 20. Diciembre 2008, 16:26
Martinu / Music for Violin and Orchestra, Vol.1 (Matousek; Hogwood)
Usar unidad : PLEXTOR DVDR PX-716AL Adapter: 3 ID: 1
Modo de Lectura : SeguroUtilizar Corriente Exacta : SíDescartar Audio caché : SíUtilizar los punteros C2 : No
Corrección de Desplazamiento de Lectura : 30Sobreleer tanto en Lead-In como en Lead-Out : SíRellenar las muestras faltantes con silencios : SíEliminar silencios inicial y final : NoInterfaz usada : Interfaz propio de Win32 para Windowns NT y 2000
Formato de Salida utilizado : Rutinas WAV InternasFormato de Muestreo : 44.100 Hz; 16 Bit; Estéreo
TOC del CD extraido
Pista | Inicio | Duración | Sector inicial | Sector final ------------------------------------------------------------- 1 | 0:00.00 | 4:59.65 | 0 | 22489 2 | 4:59.65 | 8:10.37 | 22490 | 59276 3 | 13:10.27 | 5:28.67 | 59277 | 83943 4 | 18:39.19 | 4:48.15 | 83944 | 105558 5 | 23:27.34 | 6:54.16 | 105559 | 136624 6 | 30:21.50 | 6:08.22 | 136625 | 164246 7 | 36:29.72 | 7:26.44 | 164247 | 197740 8 | 43:56.41 | 4:33.47 | 197741 | 218262 9 | 48:30.13 | 6:34.58 | 218263 | 247870
Gama de estados y errores
Seleccionar gama
Nombre de Archivo C:\emule\Incoming\martinu-complete-music-violin-orchestra-1\Martinu - Music for Violin and Orchestra, Vol.1 (Matousek; Hogwood).wav
Nivel Pico 100.0 % Gama de Calidad 100.0 % Copiar CRC C6A06AD9 Copia OK
Sin Errores
Final del Informe

Volume 2

Жанр: Violin Concerto
Страна-производитель диска: Great Britain
Год издания диска: 2005
Издатель (лейбл): Hyperion
Номер по каталогу: CDA 67672
Дата записи: 2004
Аудиокодек: FLAC
Тип рипа: image+.cue
Битрейт аудио: lossless
Продолжительность: 64:35
Источник: скачано с web
Важная информация: рип не мой, все благодарности оригинальному аплоудеру / Important Note: not my rip, all credits to the original uploader
Наличие сканов в содержимом раздачи: да
Треклист:
[01]-[03] Concerto da camera for violin, piano and percussion H.285
[04]-[06] Concerto for violin, piano and orchestra H.342
[07]-[09] Czech Rhapsody H.329
Исполнители:
Bohuslav Matoušek, violin
Czech Philharmonic Orchestra, Christopher Hogwood

Лог создания рипа

Exact Audio Copy V0.99 prebeta 1 from 25. May 2007
Archivo Log de extracciones desde 20. Diciembre 2008, 17:59
Bohuslav Matousek; Karel Kosarek; Christopher Hogwood: Czech Philharmonic Orchestra / Martinu: Music for violin and orchestra, Vol. 2
Usar unidad : PLEXTOR DVDR PX-716AL Adapter: 3 ID: 1
Modo de Lectura : SeguroUtilizar Corriente Exacta : SíDescartar Audio caché : SíUtilizar los punteros C2 : No
Corrección de Desplazamiento de Lectura : 30Sobreleer tanto en Lead-In como en Lead-Out : SíRellenar las muestras faltantes con silencios : SíEliminar silencios inicial y final : NoInterfaz usada : Interfaz propio de Win32 para Windowns NT y 2000
Formato de Salida utilizado : Rutinas WAV InternasFormato de Muestreo : 44.100 Hz; 16 Bit; Estéreo
TOC del CD extraido
Pista | Inicio | Duración | Sector inicial | Sector final ------------------------------------------------------------- 1 | 0:00.00 | 7:27.47 | 0 | 33571 2 | 7:27.47 | 9:01.00 | 33572 | 74146 3 | 16:28.47 | 9:45.38 | 74147 | 118059 4 | 26:14.10 | 9:03.69 | 118060 | 158853 5 | 35:18.04 | 8:44.05 | 158854 | 198158 6 | 44:02.09 | 9:55.45 | 198159 | 242828 7 | 53:57.54 | 10:35.21 | 242829 | 290474
Gama de estados y errores
Seleccionar gama
Nombre de Archivo C:\emule\Incoming\martinu-complete-music-violin-orchestra-2\Bohuslav Matousek; Karel Kosarek; Christopher Hogwood Czech Philharmonic Orchestra - Martinu Music for violin and orchestra, Vol. 2.wav
Nivel Pico 100.0 % Gama de Calidad 100.0 % Copiar CRC 7AB7EE3A Copia OK
Sin Errores
Final del Informe

Volume 3

Жанр: Violin Concerto
Страна-производитель диска: Great Britain
Год издания диска: 2005
Издатель (лейбл): Hyperion
Номер по каталогу: CDA 67673
Дата записи: 2001-2005
Аудиокодек: FLAC
Тип рипа: image+.cue
Битрейт аудио: lossless
Продолжительность: 68:49
Источник: скачано с web
Важная информация: рип не мой, все благодарности оригинальному аплоудеру / Important Note: not my rip, all credits to the original uploader
Наличие сканов в содержимом раздачи: да
Треклист:
[01]-[05] Suite Concertante for violin and orchestra H.276
[06]-[09] Suite Concertante for violin and orchestra H.276A
[09]-[11] Rhapsody-Concerto for viola and orchestra H.337
Исполнители:
Bohuslav Matoušek, violin, viola
Czech Philharmonic Orchestra, Christopher Hogwood

Лог создания рипа

EAC extrae el archivo del registro desde 21. Diciembre 2008, 9:08 para el CDBohuslav Matousek; Christopher Hogwood: Czech Philharmonic Orchestra / Martinu: The Complete Music For Violin & Orchestra, Vol. 3
Unidad Usada: PLEXTOR DVDR PX-716AL Adapter: 3 ID: 1Modo de Lectura: Seguro sin C2, con Flujo Preciso, desactivando CacheCorrección de Lectura del Balance: 30Leer dentro de la cabecera de inicio y cierre del CD : No
Usar Formato de Salida: Rutinas internas del WAV 44.100 Hz; 16 Bit; Estéreo
Otras Opciones: Rellenar muestras pérdidas del balance con silencios : Si Eliminar bloques de silencios al principio y final : No Interfaz Win32 para Windows (NT/2000/XP)
Límite erroneoSeleccionar Límite Nombre de archivo C:\emule\Incoming\martinu-complete-music-violin-orchestra-3\Bohuslav Matousek; Christopher Hogwood Czech Philharmonic Orchestra - Martinu The Complete Music For Violin & Orchestra, Vol. 3.wav
Nivel de pico 98.8 % Calidad de límite 100.0 % CRC 9141FFA6 Copia realizada
No existen errores
Fin de la información de estado

Volume 4

Жанр: Violin Concerto
Страна-производитель диска: Great Britain
Год издания диска: 2005
Издатель (лейбл): Hyperion
Номер по каталогу: CDA 67674
Дата записи: 2001-2004
Аудиокодек: APE
Тип рипа: image+.cue
Битрейт аудио: lossless
Продолжительность: 54:10
Источник: скачано с web
Важная информация: рип не мой, все благодарности оригинальному аплоудеру / Important Note: not my rip, all credits to the original uploader
Наличие сканов в содержимом раздачи: да
Треклист:
[01]-[03] Concerto for violin and orchestra No. 1 H.226
[04]-[06] Concerto for violin and orchestra No. 2 H.293
Исполнители:
Bohuslav Matoušek, violin, viola
Czech Philharmonic Orchestra, Christopher Hogwood

Лог создания рипа

Exact Audio Copy V0.99 prebeta 5 from 4. May 2009
EAC extraction logfile from 27. July 2009, 19:11
Bohuslav Martinu / Complete Music for Violin and Orchestra Vol.4 (Hogwood, Matoušek, Czech PO, Hyperion)
Used drive : TSSTcorpCD/DVDW TS-H652D Adapter: 0 ID: 0
Read mode : SecureUtilize accurate stream : YesDefeat audio cache : NoMake use of C2 pointers : No
Combined read/write offset correction : 0Overread into Lead-In and Lead-Out : NoFill up missing offset samples with silence : YesDelete leading and trailing silent blocks : NoNull samples used in CRC calculations : NoUsed interface : Native Win32 interface for Win NT & 2000
Used output format : Internal WAV RoutinesSample format : 44.100 Hz; 16 Bit; Stereo
TOC of the extracted CD
Track | Start | Length | Start sector | End sector --------------------------------------------------------- 1 | 0:00.00 | 10:14.42 | 0 | 46091 2 | 10:14.42 | 6:15.21 | 46092 | 74237 3 | 16:29.63 | 8:31.34 | 74238 | 112596 4 | 25:01.22 | 12:45.30 | 112597 | 170001 5 | 37:46.52 | 7:38.28 | 170002 | 204379 6 | 45:25.05 | 8:43.60 | 204380 | 243664
Range status and errors
Selected range
Filename C:\- Stuff\Ripped\Bohuslav Martinu - Complete Music for Violin and Orchestra Vol.4 (Hogwood, Matoušek, Czech PO, Hyperion).wav
Peak level 98.8 % Range quality 100.0 % Copy CRC 05D83A38 Copy OK
No errors occurred
End of status report
[teatrix.ru].t9962.torrent 
Торрент: Зарегистрирован [ 2015-10-25 20:37 ] · 1AD24E37BD2B46DF85A6C8B6A0865EDE8FD81EC6

Скачать .torrent

Скачать

13 KB

Статус: проверено
Скачан: 0 раз
Размер: 1.05 GB
terms.php



Быстрый ответ

Имя:

      
Для отправки сообщений необходимо включить JavaScript
Показать сообщения:    

Текущее время: 08-Дек 14:58

Часовой пояс: UTC + 3


Вы можете начинать темы
Вы можете отвечать на сообщения
Вы не можете редактировать свои сообщения
Вы не можете удалять свои сообщения
Вы не можете голосовать в опросах
Вы не можете прикреплять файлы к сообщениям
Вы можете скачивать файлы