(Piano, Concerto) Респиги - Концерт в миксолидийском ладу, Концерт для пяти "Венеция" / Respighi - Concerto in Modo Misolidio, Concerto a Cinque (Константин Щербаков, Slovak RSO, Capella Istropolitana) - 1999, FLAC (tracks+.cue) lossless


Статистика раздачи [Обновить пиров]
Размер:  236 MB   |    Зарегистрирован:  1 год 1 месяц   |    Скачан:  0 раз

Полного источника не было: 10 месяцев 30 дней

 
   
 
 
 

[Цитировать]

Respighi - Concerto in Modo Misolidio, Concerto a Cinque "Venezia"
Жанр: Piano, Concerto
Страна-производитель диска: Germany
Год издания диска: 1999
Издатель (лейбл): Naxos
Номер по каталогу: 8.553366
Дата записи: 1996
Аудиокодек: FLAC
Тип рипа: tracks+.cue
Битрейт аудио: lossless
Продолжительность: 60.44
Источник: скачано с
Наличие сканов в содержимом раздачи: да
Треклист:
Ottorino Respighi (1879-1936)
Концерт для фортепиано с оркестром "В миксолидийском ладу" (1925)
01 I. Moderato (16:12)
02 II. Lento (8:31)
03 III. Allegro energico (Passacaglia) (10:30)
Концерт для пяти "Венеция" (1933)
04 I. Moderato - Allegro - Grave (6:57)
05 II. Adagio (12:42)
06 III. Allegro vivo - Allegro moderato - Largo (5:52)
Исполнители:
Константин Щербаков, фортепиано
Slovak Radio Symphony Orchestra/Howard Griffiths, cond. (1-3)
Capella Istropolitana/Ewald Dane, cond. (4-6)
1995-96

Лог создания рипа

Exact Audio Copy V0.99 prebeta 5 from 4. May 2009
EAC extraction logfile from 1. March 2010, 8:50
Ottorino Respighi / Concerto in modo misolidio · Concerto a cinque
Used drive : TSSTcorpCDDVDW TS-L632H Adapter: 2 ID: 0
Read mode : SecureUtilize accurate stream : YesDefeat audio cache : YesMake use of C2 pointers : No
Read offset correction : 6Overread into Lead-In and Lead-Out : NoFill up missing offset samples with silence : YesDelete leading and trailing silent blocks : NoNull samples used in CRC calculations : YesUsed interface : Native Win32 interface for Win NT & 2000
Used output format : User Defined EncoderSelected bitrate : 32 kBit/sQuality : HighAdd ID3 tag : NoCommand line compressor : C:\Program Files\Exact Audio Copy\Flac\flac.exeAdditional command line options : -8 -V -T "ARTIST=%a" -T "TITLE=%t" -T "ALBUM=%g" -T "DATE=%y" -T "TRACKNUMBER=%n" -T "TOTALTRACKS=%x" -T "GENRE=%m" -T "ALBUM ARTIST=%v" -T "ALBUMARTIST=%v" -T "COMMENT=EAC V0.99 prebeta 4, Secure Mode, Test & Copy, FLAC -8
TOC of the extracted CD
Track | Start | Length | Start sector | End sector --------------------------------------------------------- 1 | 0:00.00 | 16:12.55 | 0 | 72954 2 | 16:12.55 | 8:31.52 | 72955 | 111331 3 | 24:44.32 | 10:30.33 | 111332 | 158614 4 | 35:14.65 | 6:57.42 | 158615 | 189931 5 | 42:12.32 | 12:42.53 | 189932 | 247134 6 | 54:55.10 | 5:52.62 | 247135 | 273596
Range status and errors
Selected range
Filename C:\Users\horacio\Desktop\Ottorino Respighi - Concerto in modo misolidio · Concerto a cinque.wav
Peak level 99.9 % Range quality 100.0 % Copy CRC 8E1DFA68 Copy OK
No errors occurred
AccurateRip summary
Track 1 not present in databaseTrack 2 not present in databaseTrack 3 not present in databaseTrack 4 not present in databaseTrack 5 not present in databaseTrack 6 not present in database
None of the tracks are present in the AccurateRip database
End of status report

Содержание индексной карты (.CUE)

REM DISCID 560E3F06REM COMMENT "ExactAudioCopy v0.99pb5"PERFORMER "Ottorino Respighi"TITLE "Concerto in modo misolidio · Concerto a cinque"FILE "Ottorino Respighi - Concerto in modo misolidio · Concerto a cinque.flac" WAVE TRACK 01 AUDIO TITLE "Concerto in modo misolidio / 1.Moderato" PERFORMER "Ottorino Respighi" INDEX 01 00:00:00 TRACK 02 AUDIO TITLE "Concerto in modo misolidio / 2.Lento" PERFORMER "Ottorino Respighi" INDEX 01 16:12:55 TRACK 03 AUDIO TITLE "Concerto in modo misolidio / 3.Allegro energico (Passacaglia)" PERFORMER "Ottorino Respighi" INDEX 01 24:44:32 TRACK 04 AUDIO TITLE "Concerto a cinque / 1.Moderato-Allegro-Grave" PERFORMER "Ottorino Respighi" INDEX 01 35:14:65 TRACK 05 AUDIO TITLE "Concerto a cinque / 2.Adagio" PERFORMER "Ottorino Respighi" INDEX 01 42:12:32 TRACK 06 AUDIO TITLE "Concerto a cinque / 3.Allegro vivo-Allegro moderato-Largo" PERFORMER "Ottorino Respighi" INDEX 01 54:55:10
Доп. информация: Среди композиторов XX века Респиги занимает особое положение. Индивидуальный синтез европейского романтизма, русской классики, французского импрессионизма и итальянского классицизма придаёт его музыке неповторимые своеобразные черты. Концерт для фортепиано с оркестром "B миксолидийском ладу" (1925) продолжает линию, написанного четырьмя годами раньше скрипичного Григорианского концерта. Главная тема первой части взята из мессы "Viri Galilaei” Палестрины, тема лирического Lento - из григорианских песнопений. Финал представляет собой барочную Пассакалию с 18ю вариациями и сольной каденцией. Среди других интересных моментов финала этого красивого и поэтичного концерта - "восточная" арабеска и ритмичная гимническая тема в форме канона. Общий колорит музыки - импрессионистский, гармонии модальные - в духе Дебюсси, некоторые пианистические приёмы заставляют вспомнить концерты Грига и Рахманинова. Могут возникнуть и совершенно неожиданные ассоциации, поскольку миксолидийский лад является основой блюзовой гаммы и имеет очень современное звучание, например этот лад очень любили "Beatles".
Концерт для пяти (фортепиано, гобоя, трубы, виолы'д амур, контрабаса и струнных) "Венеция" (1933) (по сути - это квинтет где все инструменты попеременно солируют) написан в духе барочных итальянских Кончерти гросси. В последнем случае речь идёт не о поверхностной стилизации музыкального языка Корелли и Вивальди, а о проникновении в музыкальную форму, тематизм, методы композиции их эпохи. Красивые необарочные темы в этом концерте соседствуют с ранее несвойственными Респиги диссонансами, подслушанными у Стравинского или у Казеллы. Хотя неоклассика Респиги гораздо романтичнее и мягче, чем у продвинутой "молодежи".
[teatrix.ru].t9963.torrent 
Торрент: Зарегистрирован [ 2015-10-25 20:37 ] · DD5555C4E47EED21CB9F21AED5C0F0E640330833

Скачать .torrent

Скачать

20 KB

Статус: проверено
Скачан: 0 раз
Размер: 236 MB
terms.php



Быстрый ответ

Имя:

      
Для отправки сообщений необходимо включить JavaScript
Показать сообщения:    

Текущее время: 04-Дек 17:20

Часовой пояс: UTC + 3


Вы можете начинать темы
Вы можете отвечать на сообщения
Вы не можете редактировать свои сообщения
Вы не можете удалять свои сообщения
Вы не можете голосовать в опросах
Вы не можете прикреплять файлы к сообщениям
Вы можете скачивать файлы