(Classical) Antonio Vivaldi - Le Quattro Stagioni / Антонио Вивальди - Концерты для скрипки с оркестром \'Времена года\' (худ.рук - Лев Шиндер, скрипка - Михаил Вайман) - 2010, FLAC (image+.cue) lossless


Статистика раздачи [Обновить пиров]
Размер:  335 MB   |    Зарегистрирован:  1 год 1 месяц   |    Скачан:  0 раз

Полного источника не было: Никогда

 
   
 
 
 

[Цитировать]

Антонио Вивальди - Концерты для скрипки с оркестром 'Времена года'
Жанр: Classical
Страна-производитель диска: Россия
Год издания диска: 2010
Издатель (лейбл): Мелодия
Номер по каталогу: MEL CD 10 01411
Дата записи: 1972
Аудиокодек: FLAC
Тип рипа: image+.cue
Битрейт аудио: lossless
Продолжительность: 39:11
Источник: собственный рип
Наличие сканов в содержимом раздачи: да
Треклист:
Концерт ми мажор 'Весна', соч. 8 № 1:
01. I. Allegro [03:50]
02. II. Largo [02:36]
03. III. Allegro [03:59]
Концерт соль минор 'Лето', соч. 8 № 2, RV 315:
04. I. Allegro non molto [04:24]
05. II. Adagio. Presto. Adagio [01:38]
06. III. Presto [02:48]
Концерт фа мажор 'Осень', соч. 8 № 3, RV 293:
07. I. Allegro [04:56]
08. II. Концерт фа мажор 'Осень', соч. 8 № 3, RV 293: II. Adagio molto [02:40]
09. III.Концерт фа мажор 'Осень', соч. 8 № 3, RV 293: III. Allegro [03:17]
Концерт фа минор 'Зима', соч. 8 № 4, RV 297:
10. I. Allegro non molto [03:30]
11. II. Largo [02:11]
12. III. Allegro [03:18]
Исполнители:
Михаил Вайман - скрипка
Камерный оркестр Ленинградской филармонии,
Художественный руководитель - Лев Шиндер

Лог создания рипа

Exact Audio Copy V1.0 beta 3 from 29. August 2011
EAC extraction logfile from 2. April 2014, 11:33
Антонио Вивальди / Великие композиторы 1: Концерты для скрипки с оркестром "Времена года"
Used drive : ASUS DRW-24B5ST Adapter: 2 ID: 0
Read mode : SecureUtilize accurate stream : YesDefeat audio cache : YesMake use of C2 pointers : No
Read offset correction : 6Overread into Lead-In and Lead-Out : NoFill up missing offset samples with silence : YesDelete leading and trailing silent blocks : NoNull samples used in CRC calculations : YesUsed interface : Native Win32 interface for Win NT & 2000
Used output format : User Defined EncoderSelected bitrate : 128 kBit/sQuality : HighAdd ID3 tag : NoCommand line compressor : C:\flac-1.3.0.exeAdditional command line options : -V -8 -T "Genre=%genre%" -T "Artist=%artist%" -T "Title=%title%" -T "Album=%albumtitle%" -T "Date=%year%" -T "Tracknumber=%tracknr%" -T "Comment=ripped by Andy aka yetiisyou" %source%
TOC of the extracted CD
Track | Start | Length | Start sector | End sector --------------------------------------------------------- 1 | 0:00.00 | 3:50.15 | 0 | 17264 2 | 3:50.15 | 2:36.20 | 17265 | 28984 3 | 6:26.35 | 3:59.23 | 28985 | 46932 4 | 10:25.58 | 4:24.17 | 46933 | 66749 5 | 14:50.00 | 1:38.00 | 66750 | 74099 6 | 16:28.00 | 2:48.37 | 74100 | 86736 7 | 19:16.37 | 4:56.09 | 86737 | 108945 8 | 24:12.46 | 2:40.54 | 108946 | 120999 9 | 26:53.25 | 3:17.21 | 121000 | 135795 10 | 30:10.46 | 3:30.39 | 135796 | 151584 11 | 33:41.10 | 2:11.50 | 151585 | 161459 12 | 35:52.60 | 3:18.59 | 161460 | 176368
Range status and errors
Selected range
Filename C:\YA\Антонио Вивальди - Концерты для скрипки с оркестром 'Времена года' [MEL CD 10 01411] [2008]\Антонио Вивальди - Великие композиторы 1- Концерты для скрипки с оркестром ''Времена года''.wav
Peak level 49.2 % Extraction speed 3.0 X Range quality 100.0 % Test CRC A15DCAC1 Copy CRC A15DCAC1 Copy OK
No errors occurred
AccurateRip summary
Track 1 accurately ripped (confidence 2) [1CBC22BF] (AR v2)Track 2 accurately ripped (confidence 2) [F263BD50] (AR v2)Track 3 accurately ripped (confidence 2) [F88099A3] (AR v2)Track 4 accurately ripped (confidence 2) [748DD276] (AR v2)Track 5 accurately ripped (confidence 2) [D23963C7] (AR v2)Track 6 accurately ripped (confidence 2) [B1A150F6] (AR v2)Track 7 accurately ripped (confidence 2) [1BFC142A] (AR v2)Track 8 accurately ripped (confidence 2) [456BE54D] (AR v2)Track 9 accurately ripped (confidence 2) [1E6AB3DE] (AR v2)Track 10 accurately ripped (confidence 2) [B7D30519] (AR v2)Track 11 accurately ripped (confidence 2) [9391449B] (AR v2)Track 12 accurately ripped (confidence 2) [CA161A8F] (AR v2)
All tracks accurately ripped
End of status report
---- CUETools DB Plugin V2.1.3
[CTDB TOCID: _zERWhnRrUfMB2FRmZR7X8obO6Y-] found, Submit result: _zERWhnRrUfMB2FRmZR7X8obO6Y- has been confirmed[a68b2bf3] (15/15) Accurately ripped
==== Log checksum 0ECB6268BB7184AB55EFB07C7AA690796FB5D2211AEC7938605E1F7E9A99995A ====

Содержание индексной карты (.CUE)

REM DATE 2008REM DISCID 99092F0CREM COMMENT "ExactAudioCopy v1.0b3"PERFORMER "Антонио Вивальди"TITLE "Великие композиторы 1: Концерты для скрипки с оркестром 'Времена года'"FILE "Антонио Вивальди - Великие композиторы 1- Концерты для скрипки с оркестром ''Времена года''.flac" WAVE TRACK 01 AUDIO TITLE "Концерт ми мажор 'Весна', соч. 8 № 1, RV 269: I. Allegro" PERFORMER "Антонио Вивальди" FLAGS DCP INDEX 01 00:00:00 TRACK 02 AUDIO TITLE "Концерт ми мажор 'Весна', соч. 8 № 1, RV 269: II. Largo" PERFORMER "Антонио Вивальди" FLAGS DCP INDEX 01 03:50:15 TRACK 03 AUDIO TITLE "Концерт ми мажор 'Весна', соч. 8 № 1, RV 269: III. Allegro" PERFORMER "Антонио Вивальди" FLAGS DCP INDEX 01 06:26:35 TRACK 04 AUDIO TITLE "Концерт соль минор 'Лето', соч. 8 № 2, RV 315: I. Allegro non molto" PERFORMER "Антонио Вивальди" FLAGS DCP INDEX 01 10:25:58 TRACK 05 AUDIO TITLE "Концерт соль минор 'Лето', соч. 8 № 2, RV 315: II. Adagio. Presto. Adagio" PERFORMER "Антонио Вивальди" FLAGS DCP INDEX 01 14:50:00 TRACK 06 AUDIO TITLE "Концерт соль минор 'Лето', соч. 8 № 2, RV 315: III. Presto" PERFORMER "Антонио Вивальди" FLAGS DCP INDEX 01 16:28:00 TRACK 07 AUDIO TITLE "Концерт фа мажор 'Осень', соч. 8 № 3, RV 293: I. Allegro" PERFORMER "Антонио Вивальди" FLAGS DCP INDEX 01 19:16:37 TRACK 08 AUDIO TITLE "Концерт фа мажор 'Осень', соч. 8 № 3, RV 293: II. Adagio molto" PERFORMER "Антонио Вивальди" FLAGS DCP INDEX 01 24:12:46 TRACK 09 AUDIO TITLE "Концерт фа мажор 'Осень', соч. 8 № 3, RV 293: III. Allegro" PERFORMER "Антонио Вивальди" FLAGS DCP INDEX 01 26:53:25 TRACK 10 AUDIO TITLE "Концерт фа минор 'Зима', соч. 8 № 4, RV 297: I. Allegro non molto" PERFORMER "Антонио Вивальди" FLAGS DCP INDEX 01 30:10:46 TRACK 11 AUDIO TITLE "Концерт фа минор 'Зима', соч. 8 № 4, RV 297: II. Largo" PERFORMER "Антонио Вивальди" FLAGS DCP INDEX 01 33:41:10 TRACK 12 AUDIO TITLE "Концерт фа минор 'Зима', соч. 8 № 4, RV 297: III. Allegro" PERFORMER "Антонио Вивальди" FLAGS DCP INDEX 01 35:52:60

Лог проверки качества

-----------------------
DON'T MODIFY THIS FILE
-----------------------
PERFORMER: auCDtect Task Manager, ver. 1.6.0 RC1 build 1.6.0.1Copyright (c) 2008-2010 y-soft. All rights reservedhttp://y-soft.org
ANALYZER: auCDtect: CD records authenticity detector, version 0.8.2Copyright (c) 2004 Oleg Berngardt. All rights reserved.Copyright (c) 2004 Alexander Djourik. All rights reserved.
FILE: Антонио Вивальди - Великие композиторы 1- Концерты для скрипки с оркестром ''Времена года''.flac Size: 196896890 Hash: 9782491B31A7DD1E8A355E8E31F3C295 Accuracy: -m0 Conclusion: CDDA 76% Signature: 392BE09D503B2BD2110DF6B2C81C35E4E6EA107F
[teatrix.ru].t9964.torrent 
Торрент: Зарегистрирован [ 2015-10-25 20:37 ] · 2F84F397AD8F010C23FF831553D2E895541FE390

Скачать .torrent

Скачать

16 KB

Статус: проверено
Скачан: 0 раз
Размер: 335 MB
terms.php



Быстрый ответ

Имя:

      
Для отправки сообщений необходимо включить JavaScript
Показать сообщения:    

Текущее время: 08-Дек 19:12

Часовой пояс: UTC + 3


Вы можете начинать темы
Вы можете отвечать на сообщения
Вы не можете редактировать свои сообщения
Вы не можете удалять свои сообщения
Вы не можете голосовать в опросах
Вы не можете прикреплять файлы к сообщениям
Вы можете скачивать файлы