(Classical) Rodrigo - Concierto Pastoral para flauta y orquesta, Хачатурян / Khachaturian - концерт для флейты (в оригинале - для скрипки) / Flute Concerto (originally for violin). P. Gallois (flute), I. Marin - 1992, FLAC (image+.cue) lossless


Статистика раздачи [Обновить пиров]
Размер:  246 MB   |    Зарегистрирован:  1 год 1 месяц   |    Скачан:  0 раз

Полного источника не было: 4 месяца 21 день

 
   
 
 
 

[Цитировать]

Rodrigo - Concierto Pastoral para flauta y orquesta, Арам Хачатурян / Khachaturian - концерт для флейты (в оригинале - для скрипки) / Flute Concerto (originally for violin). P. Gallois (flute), I. Marin
Жанр: Classical
Страна-производитель диска: Germany
Год издания диска: 1992
Издатель (лейбл): Deutsche Grammophon
Номер по каталогу: 435 767-2
Дата записи: 1991
Аудиокодек: FLAC
Тип рипа: image+.cue
Битрейт аудио: lossless
Продолжительность: 60'56
Источник: собственный рип
Наличие сканов в содержимом раздачи: да
Треклист:
JOAQUIN RODRIGO (* 1901)
Concierto pastoral para flauta y orquesta

1. Allegro [7'23]
2. Adagio - Allegro moderate - Allegretto - Tempo I — Allegretto [10'15]
(Cadenza: J. Rodrigo)
3. Rondo. Allegro - Allegretto [6'16]
ARAM KHACHATURIAN (1903-1978)
Concerto for Flute and Orchestra (originally for violin)

Arrangement: PATRICK GALLOIS
1. Allegro con fermezza (Cadenza: P. Gallois) [14'26]
2. Andante sostenuto [11'47]
3. Allegro vivace [10'42]
Исполнители:
PATRICK GALLOIS, flute
Philharmonia Orchestra, ION MARIN

Лог создания рипа

Exact Audio Copy V1.0 beta 3 from 29. August 2011
Отчёт EAC об извлечении, выполненном 18. апреля 2014, 10:34
Patrick Gallois / Rodrigo, Khachaturian - Flute Concertos
Дисковод: TSSTcorpBDDVDW SE-506BB Adapter: 1 ID: 0
Режим чтения : ДостоверностьИспользование точного потока : ДаОтключение кэша аудио : ДаИспользование указателей C2 : Нет
Коррекция смещения при чтении : 6Способность читать области Lead-in и Lead-out : НетЗаполнение пропущенных сэмплов тишиной : ДаУдаление блоков с тишиной в начале и конце : НетПри вычислениях CRC использовались нулевые сэмплы : ДаИнтерфейс : Встроенный Win32-интерфейс для Win NT/2000
Выходной формат : Пользовательский кодировщикВыбранный битрейт : 768 kBit/sКачество : ВысокийДобавление ID3-тега : НетУтилита сжатия : E:\Program Files\audio\EAC\FLAC\FLAC.EXEДополнительные параметры : -6 -V -T "ARTIST=%artist%" -T "TITLE=%title%" -T "ALBUM=%albumtitle%" -T "DATE=%year%" -T "TRACKNUMBER=%tracknr%" -T "GENRE=%genre%" -T "COMMENT=%comment%" -T "BAND=%albuminterpret%" -T "ALBUMARTIST=%albuminterpret%" -T "COMPOSER=%composer%" %haslyrics%--tag-from-file=LYRICS="%lyricsfile%"%haslyrics% -T "DISCNUMBER=%cdnumber%" -T "TOTALDISCS=%totalcds%" -T "TOTALTRACKS=%numtracks%" %hascover%--picture="%coverfile%"%hascover% %source% -o %dest%
TOC извлечённого CD
Трек | Старт | Длительность | Начальный сектор | Конечный сектор --------------------------------------------------------------------- 1 | 0:00.33 | 7:22.67 | 33 | 33249 2 | 7:23.25 | 10:15.15 | 33250 | 79389 3 | 17:38.40 | 6:23.48 | 79390 | 108162 4 | 24:02.13 | 14:25.57 | 108163 | 173094 5 | 38:27.70 | 11:46.65 | 173095 | 226109 6 | 50:14.60 | 10:41.68 | 226110 | 274252
Характеристики диапазона извлечения и сообщения об ошибках
Выбранный диапазон
Имя файла M:\_Music\Classics\Rodrigo, Khachaturian - Flute Concertos\Rodrigo, Khachaturian - Flute Concertos.wav
Пиковый уровень 98.9 % Скорость извлечения 2.1 X Качество диапазона 100.0 % CRC копии DD7962CF Копирование... OK
Ошибок не произошло
AccurateRip: сводка
Трек 1 : извлечено точно (доверие 3) [3B746BED] (AR v2)Трек 2 : извлечено точно (доверие 3) [7C865B8B] (AR v2)Трек 3 : извлечено точно (доверие 3) [388A59CE] (AR v2)Трек 4 : извлечено точно (доверие 3) [69FB6904] (AR v2)Трек 5 : извлечено точно (доверие 3) [AE1935A2] (AR v2)Трек 6 : извлечено точно (доверие 3) [EFD216C8] (AR v2)
Все треки извлечены точно
Конец отчёта

Содержание индексной карты (.CUE)

REM GENRE ClassicalREM DATE 1992REM DISCID 3B0E4806REM COMMENT "ExactAudioCopy v1.0b3"PERFORMER "Patrick Gallois"TITLE "Rodrigo, Khachaturian - Flute Concertos"FILE "Rodrigo, Khachaturian - Flute Concertos.flac" WAVE TRACK 01 AUDIO TITLE "Concierto Pastoral 1. Allegro" PERFORMER "Rodrigo" INDEX 00 00:00:00 INDEX 01 00:00:33 TRACK 02 AUDIO TITLE "Concierto Pastoral 2. Adagio, Allegro moderato, Allegretto, Tempo I, Allegretto" PERFORMER "Rodrigo" INDEX 01 07:23:25 TRACK 03 AUDIO TITLE "Concierto Pastoral 3. Rondo. Allegro, Allegretto" PERFORMER "Rodrigo" INDEX 01 17:38:40 TRACK 04 AUDIO TITLE "Concerto for Flute and Orchestra 1. Allegro con fermezza" PERFORMER "Khachaturian" INDEX 00 23:54:28 INDEX 01 24:02:13 TRACK 05 AUDIO TITLE "Concerto for Flute and Orchestra 2. Andante sostenuto" PERFORMER "Khachaturian" INDEX 01 38:27:70 TRACK 06 AUDIO TITLE "Concerto for Flute and Orchestra 3. Allegro vivace" PERFORMER "Khachaturian" INDEX 01 50:14:60
[teatrix.ru].t9965.torrent 
Торрент: Зарегистрирован [ 2015-10-25 20:37 ] · 82E7731D580F1BC1E69E9733B1F5AC4861B329F0

Скачать .torrent

Скачать

20 KB

Статус: проверено
Скачан: 0 раз
Размер: 246 MB
terms.php



Быстрый ответ

Имя:

      
Для отправки сообщений необходимо включить JavaScript
Показать сообщения:    

Текущее время: 10-Дек 02:17

Часовой пояс: UTC + 3


Вы можете начинать темы
Вы можете отвечать на сообщения
Вы не можете редактировать свои сообщения
Вы не можете удалять свои сообщения
Вы не можете голосовать в опросах
Вы не можете прикреплять файлы к сообщениям
Вы можете скачивать файлы