(Violoncello) Кабалевский - Виолончельный концерт №2 | Mendelssohn - Piano trio No.1 | Brahms - Cello sonata No.1 (Steven Isserlis • Joshua Bell • Denes Varjon • Stephen Hough • Кирилл Карабиц) - 2011, FLAC (image+.cue) lossless


Статистика раздачи [Обновить пиров]
Размер:  290 MB   |    Зарегистрирован:  1 год 1 месяц   |    Скачан:  1 раз

Полного источника не было: 1 месяц 1 день

 
   
 
 
 

[Цитировать]

Steven Isserlis
plays Kabalevsky, Mendelssohn and Brahms
-
-
-
-
- Жанр: Violoncello
Страна-производитель диска: UK
Год издания диска: 2011
Издатель (лейбл): BBC
Дата записи: 2005/09
Аудиокодек: FLAC
Тип рипа: image+.cue
Битрейт аудио: lossless
Продолжительность: 76'06''
Источник: собственный рип
Наличие сканов в содержимом раздачи: да
Треклист:
Дмитрий Кабалевский - Cello Concerto No.2:
[1] I. Molto sostenuto
[2] II. Presto marcato
[3] III. Andante con moto
Felix Mendelssohn - Piano Trio No.1:
[4] I. Molto allegro agitato
[5] II. Andante con moto tranquillo
[6] III. Scherzo: Leggiero e vivace
[7] IV. Finale: Allegro assai appassionato
Johannes Brahms - Cello Sonata No.1:
[8] I. Allegro non troppo
[9] II. Allegretto quasi menuetto
[10] III. Allegro
Исполнители:
Steven Isserlis - cello
Joshua Bell - violin
Dénes Várjon - piano [4-7] | Stephen Hough - piano [8-10]
Bournemouth Symphony Orchestra - Kirill Karabits
-

Лог создания рипа

Exact Audio Copy V1.0 beta 3 from 29. August 2011
EAC extraction logfile from 4. March 2014, 19:48
Steven Isserlis / Kabalevsky, Mendelssohn, Brahms - Works for cello
Used drive : COMPAQ CD-ROM LTN403 Adapter: 0 ID: 0
Read mode : SecureUtilize accurate stream : YesDefeat audio cache : YesMake use of C2 pointers : No
Read offset correction : -1164Overread into Lead-In and Lead-Out : NoFill up missing offset samples with silence : YesDelete leading and trailing silent blocks : NoNull samples used in CRC calculations : YesUsed interface : Native Win32 interface for Win NT & 2000
Used output format : User Defined EncoderSelected bitrate : 1024 kBit/sQuality : HighAdd ID3 tag : NoCommand line compressor : C:\Program Files\FLAC\flac.exeAdditional command line options : -T"COMMENT=rip by el coronel" -8 -V %source%
TOC of the extracted CD
Track | Start | Length | Start sector | End sector --------------------------------------------------------- 1 | 0:00.00 | 10:38.40 | 0 | 47889 2 | 10:38.40 | 8:05.30 | 47890 | 84294 3 | 18:43.70 | 7:32.28 | 84295 | 118222 4 | 26:16.23 | 9:27.41 | 118223 | 160788 5 | 35:43.64 | 6:44.23 | 160789 | 191111 6 | 42:28.12 | 3:37.11 | 191112 | 207397 7 | 46:05.23 | 8:10.71 | 207398 | 244218 8 | 54:16.19 | 10:23.33 | 244219 | 290976 9 | 64:39.52 | 5:31.50 | 290977 | 315851 10 | 70:11.27 | 5:54.64 | 315852 | 342465
Range status and errors
Selected range
Filename D:\Kabalevsky, Mendelssohn, Brahms - Works for Cello.wav
Peak level 100.0 % Extraction speed 3.0 X Range quality 100.0 % Test CRC 13C7D52C Copy CRC 13C7D52C Copy OK
No errors occurred
End of status report
==== Log checksum CF78992E5CA2729637CDDDBEC03BCD2FC67CF892A78B292151876B02B5EABC83 ====

Содержание индексной карты (.CUE)

REM GENRE ClassicalREM DATE 2011REM DISCID 8811D60AREM COMMENT "ExactAudioCopy v1.0b3"PERFORMER "Steven Isserlis"TITLE "Kabalevsky, Mendelssohn, Brahms - Works for cello"FILE "Kabalevsky, Mendelssohn, Brahms - Works for Cello.flac" WAVE TRACK 01 AUDIO TITLE "D.Kabalevsky - Cello Concerto No.2: I. Molto sostenuto" PERFORMER "Steven Isserlis; Bournemouth Symphony Orchestra - K.Karabits" FLAGS PRE DCP INDEX 01 00:00:00 TRACK 02 AUDIO TITLE "II. Presto marcato" PERFORMER "Steven Isserlis; Bournemouth Symphony Orchestra - K.Karabits" FLAGS PRE DCP INDEX 01 10:38:40 TRACK 03 AUDIO TITLE "III. Andante con moto" PERFORMER "Steven Isserlis; Bournemouth Symphony Orchestra - K.Karabits" FLAGS PRE DCP INDEX 01 18:43:70 TRACK 04 AUDIO TITLE "F.Mendelssohn - Piano Trio No.1: I. Molto allegro agitato" PERFORMER "Steven Isserlis, Joshua Bell, Denes Varjon" FLAGS PRE DCP INDEX 00 26:07:08 INDEX 01 26:16:23 TRACK 05 AUDIO TITLE "II. Andante con moto tranquillo" PERFORMER "Steven Isserlis, Joshua Bell, Denes Varjon" FLAGS PRE DCP INDEX 00 35:43:63 INDEX 01 35:43:64 TRACK 06 AUDIO TITLE "III. Scherzo: Leggiero e vivace" PERFORMER "Steven Isserlis, Joshua Bell, Denes Varjon" FLAGS PRE DCP INDEX 00 42:28:11 INDEX 01 42:28:12 TRACK 07 AUDIO TITLE "IV. Finale: Allegro assai appassionato" PERFORMER "Steven Isserlis, Joshua Bell, Denes Varjon" FLAGS PRE DCP INDEX 00 46:05:14 INDEX 01 46:05:23 TRACK 08 AUDIO TITLE "J.Brahms - Cello Sonata No.1: I. Allegro non troppo" PERFORMER "Steven Isserlis, Stephen Hough" FLAGS PRE DCP INDEX 00 54:09:02 INDEX 01 54:16:19 TRACK 09 AUDIO TITLE "II. Allegretto quasi menuetto" PERFORMER "Steven Isserlis, Stephen Hough" FLAGS PRE DCP INDEX 01 64:39:52 TRACK 10 AUDIO TITLE "III. Allegro" PERFORMER "Steven Isserlis, Stephen Hough" FLAGS PRE DCP INDEX 00 70:11:26 INDEX 01 70:11:27
[teatrix.ru].t9966.torrent 
Торрент: Зарегистрирован [ 2015-10-25 20:37 ] · 25FD7DBE39EA50E36AAD7EA871667711834FA848

Скачать .torrent

Скачать

12 KB

Статус: проверено
Скачан: 1 раз
Размер: 290 MB
terms.php



Быстрый ответ

Имя:

      
Для отправки сообщений необходимо включить JavaScript
Показать сообщения:    

Текущее время: 05-Дек 05:30

Часовой пояс: UTC + 3


Вы можете начинать темы
Вы можете отвечать на сообщения
Вы не можете редактировать свои сообщения
Вы не можете удалять свои сообщения
Вы не можете голосовать в опросах
Вы не можете прикреплять файлы к сообщениям
Вы можете скачивать файлы