(Classical, contemporary) Sally Beamish - Violin Concerto; Callisto; Symphony No.1 - Anthony Marwood, Sharon Bezaly, Royal Scottish National Orchestra, Martyn Brabbins - 2010, FLAC (image+.cue) lossless


Статистика раздачи [Обновить пиров]
Размер:  292 MB   |    Зарегистрирован:  1 год 1 месяц   |    Скачан:  0 раз

Полного источника не было: Никогда

 
   
 
 
 

[Цитировать]

Sally Beamish - Violin Concerto; Callisto; Symphony No.1 - Anthony Marwood, Sharon Bezaly, Royal Scottish National Orchestra, Martyn Brabbins
Жанр: Classical, contemporary
Страна-производитель диска: Sweden
Год издания диска: 2010
Издатель (лейбл): BIS
Номер по каталогу: BIS-CD-1601
Дата записи: 2005
Аудиокодек: FLAC
Тип рипа: image+.cue
Битрейт аудио: lossless
Продолжительность: 78:35
Источник: собственный рип
Наличие сканов в содержимом раздачи: да
Треклист:
Sally Beamish (b.1956)
[1]-[3] Violin Concerto (1994)
Anthony Marwood violin
[4]-[6] Callisto, concerto for flute and orchestra (2005)
Sharon Bezaly flute
[7] Symphony No. 1 (1992)
Исполнители:
Royal Scottish National Orchestra
Martyn Brabbins
conductor

Лог создания рипа

Exact Audio Copy V1.0 beta 3 from 29. August 2011
EAC extraction logfile from 30. March 2014, 15:15
Royal Scottish National Orchestra, Martyn Brabbins / Beamish - Violin Concerto; Callisto; Symphony No.1
Used drive : HL-DT-STDVDRAM GSA-4083N Adapter: 1 ID: 0
Read mode : SecureUtilize accurate stream : YesDefeat audio cache : YesMake use of C2 pointers : No
Read offset correction : 667Overread into Lead-In and Lead-Out : NoFill up missing offset samples with silence : YesDelete leading and trailing silent blocks : NoNull samples used in CRC calculations : YesUsed interface : Native Win32 interface for Win NT & 2000
Used output format : User Defined EncoderSelected bitrate : 896 kBit/sQuality : HighAdd ID3 tag : NoCommand line compressor : C:\Program Files\Exact Audio Copy\Flac\flac.exeAdditional command line options : -V -8 %source%
TOC of the extracted CD
Track | Start | Length | Start sector | End sector --------------------------------------------------------- 1 | 0:00.00 | 10:35.18 | 0 | 47642 2 | 10:35.18 | 6:30.54 | 47643 | 76946 3 | 17:05.72 | 11:58.53 | 76947 | 130849 4 | 29:04.50 | 8:40.57 | 130850 | 169906 5 | 37:45.32 | 9:10.20 | 169907 | 211176 6 | 46:55.52 | 7:40.24 | 211177 | 245700 7 | 54:36.01 | 23:59.57 | 245701 | 353682
Range status and errors
Selected range
Filename J:\New Music\BIS-CD-1601 - Beamish - Violin Concerto; Callisto; Symphony No.1\Beamish - Violin Concerto; Callisto; Symphony No.1.wav
Peak level 99.9 % Extraction speed 2.6 X Range quality 99.9 % Test CRC 0F9BF9C7 Copy CRC 0F9BF9C7 Copy OK
No errors occurred
AccurateRip summary
Track 1 not present in databaseTrack 2 not present in databaseTrack 3 not present in databaseTrack 4 not present in databaseTrack 5 not present in databaseTrack 6 not present in databaseTrack 7 not present in database
None of the tracks are present in the AccurateRip database
End of status report
==== Log checksum 6E829649DF25C5BBDD8054C88E8FB3C575AF00DCEC05017E0289DC1C1827014D ====
[teatrix.ru].t9967.torrent 
Торрент: Зарегистрирован [ 2015-10-25 20:37 ] · 297384B59EE4AC4DD16DD70FAE8A896C4E2F4018

Скачать .torrent

Скачать

24 KB

Статус: проверено
Скачан: 0 раз
Размер: 292 MB
terms.php



Быстрый ответ

Имя:

      
Для отправки сообщений необходимо включить JavaScript
Показать сообщения:    

Текущее время: 08-Дек 19:06

Часовой пояс: UTC + 3


Вы можете начинать темы
Вы можете отвечать на сообщения
Вы не можете редактировать свои сообщения
Вы не можете удалять свои сообщения
Вы не можете голосовать в опросах
Вы не можете прикреплять файлы к сообщениям
Вы можете скачивать файлы