(Classical) The 20th-century Concerto Grosso: Schulhoff, Krenek, d'Indy - Maria Prinz, Karl-Heinz Schutz, Christoph Koncz, Robert Nagy, Academy of St Martin in the Fields, Neville Marriner - 2013, FLAC (image+.cue) lossless


Статистика раздачи [Обновить пиров]
Размер:  252 MB   |    Зарегистрирован:  1 год 1 месяц   |    Скачан:  1 раз

Полного источника не было: 1 месяц 2 дня

 
   
 
 
 

[Цитировать]

The 20th-century Concerto Grosso: Schulhoff, Krenek, d'Indy - Maria Prinz, Karl-Heinz Schütz, Christoph Koncz, Robert Nagy, Academy of St Martin in the Fields, Neville Marriner
Жанр: Classical
Страна-производитель диска: UK
Год издания диска: 2013
Издатель (лейбл): Chandos Records
Номер по каталогу: CHAN 10791
Дата записи: 2012
Аудиокодек: FLAC
Тип рипа: image+.cue
Битрейт аудио: lossless
Продолжительность: 61:51
Источник: собственный рип
Наличие сканов в содержимом раздачи: да
Треклист:
Erwin Schulhoff (1894 – 1942)
[1]-[3] Concerto doppio, WV 89 (1927)
for Flute, Piano, String Orchestra, and Two Horns
Ernst Krenek (1900 – 1991)
premiere recording
[4]-[8] Concertino, Op. 27 (1924)*
for Flute, Violin, Piano, and String Orchestra
Vincent d’Indy (1851 – 1931)
[9]-[11] Concert, Op. 89 (1926)†
for Piano, Flute, and Cello, with String Orchestra
Исполнители:
Maria Prinz piano
Karl-Heinz Schütz flute
Christoph Koncz violin*
Robert Nagy cello†
Academy of St Martin in the Fields
Sir Neville Marriner

Лог создания рипа

Exact Audio Copy V1.0 beta 3 from 29. August 2011
EAC extraction logfile from 28. February 2014, 17:39
Maria Prinz, Karl-Heinz Schuetz, Academy of St Martin in the Fields, Neville Marriner / The 20th-century Concerto Grosso
Used drive : HL-DT-STDVDRRW GWA-4164B Adapter: 5 ID: 0
Read mode : SecureUtilize accurate stream : YesDefeat audio cache : YesMake use of C2 pointers : No
Read offset correction : 102Overread into Lead-In and Lead-Out : NoFill up missing offset samples with silence : YesDelete leading and trailing silent blocks : NoNull samples used in CRC calculations : YesUsed interface : Native Win32 interface for Win NT & 2000
Used output format : User Defined EncoderSelected bitrate : 896 kBit/sQuality : HighAdd ID3 tag : NoCommand line compressor : C:\Program Files\Exact Audio Copy\FLAC\FLAC.EXEAdditional command line options : -V -8 %source%
TOC of the extracted CD
Track | Start | Length | Start sector | End sector --------------------------------------------------------- 1 | 0:00.00 | 7:59.66 | 0 | 35990 2 | 7:59.66 | 4:50.55 | 35991 | 57795 3 | 12:50.46 | 6:38.61 | 57796 | 87706 4 | 19:29.32 | 8:25.36 | 87707 | 125617 5 | 27:54.68 | 4:54.44 | 125618 | 147711 6 | 32:49.37 | 2:08.18 | 147712 | 157329 7 | 34:57.55 | 2:45.13 | 157330 | 169717 8 | 37:42.68 | 3:56.44 | 169718 | 187461 9 | 41:39.37 | 6:51.55 | 187462 | 218341 10 | 48:31.17 | 9:19.41 | 218342 | 260307 11 | 57:50.58 | 4:03.42 | 260308 | 278574
Range status and errors
Selected range
Filename D:\temp\Music\CHAN_10791 - The 20th-century Concerto Grosso (Chandos)\The 20th-century Concerto Grosso.wav
Peak level 100.0 % Extraction speed 2.7 X Range quality 100.0 % Test CRC B041A795 Copy CRC B041A795 Copy OK
No errors occurred
AccurateRip summary
Track 1 not present in databaseTrack 2 not present in databaseTrack 3 not present in databaseTrack 4 not present in databaseTrack 5 not present in databaseTrack 6 not present in databaseTrack 7 not present in databaseTrack 8 not present in databaseTrack 9 not present in databaseTrack 10 not present in databaseTrack 11 not present in database
None of the tracks are present in the AccurateRip database
End of status report
==== Log checksum CCA67BD7F6BB3F4498099ABDB248D067ECC814B1577DD52E2228F9B670024EA0 ====
[teatrix.ru].t9968.torrent 
Торрент: Зарегистрирован [ 2015-10-25 20:37 ] · D6EFECD1038921B700EE6ACD25DE6B9A8FF6019E

Скачать .torrent

Скачать

41 KB

Статус: проверено
Скачан: 1 раз
Размер: 252 MB
terms.php



Быстрый ответ

Имя:

      
Для отправки сообщений необходимо включить JavaScript
Показать сообщения:    

Текущее время: 03-Дек 09:46

Часовой пояс: UTC + 3


Вы можете начинать темы
Вы можете отвечать на сообщения
Вы не можете редактировать свои сообщения
Вы не можете удалять свои сообщения
Вы не можете голосовать в опросах
Вы не можете прикреплять файлы к сообщениям
Вы можете скачивать файлы