(Classical, contemporary) Paavo Korpijaakko - Nebula: Works for Guitar - Petri Kumela, Tiina Penttinen, Ostrobothnian Chamber Orchestra, Juha Kangas - 2012, FLAC (image+.cue) lossless


Статистика раздачи [Обновить пиров]
Размер:  182 MB   |    Зарегистрирован:  1 год 1 месяц   |    Скачан:  0 раз

Полного источника не было: Никогда

 
   
 
 
 

[Цитировать]

Paavo Korpijaakko - Nebula: Works for Guitar - Petri Kumela, Tiina Penttinen, Ostrobothnian Chamber Orchestra, Juha Kangas
Жанр: Classical, contemporary
Страна-производитель диска: Finland
Год издания диска: 2012
Издатель (лейбл): Alba Records
Номер по каталогу: ABCD 345
Дата записи: 2010, 2011
Аудиокодек: FLAC
Тип рипа: image+.cue
Битрейт аудио: lossless
Продолжительность: 62:49
Источник: собственный рип
Наличие сканов в содержимом раздачи: да
Треклист:
Paavo Korpijaakko (b.1977)
[1] Nebula (2008)
Concerto for guitar and strings
[2]-[6] Uniavaruusalus (The Spaceship of Dreams) (2010)
Song cycle of poems by Rakel Liehu
[7]-[10] Kimberley (2006)
Sonata for guitar
Исполнители:
Petri Kumela guitar
Tiina Penttinen mezzo-soprano
Ostrobothnian Chamber Orchestra
Juha Kangas
conductor

Лог создания рипа

Exact Audio Copy V1.0 beta 3 from 29. August 2011
EAC extraction logfile from 17. February 2014, 18:13
Petri Kumela, Ostrobothnian Chamber Orchestra, Juha Kangas / Korpijaakko - Works for Guitar
Used drive : HL-DT-STDVDRRW GWA-4164B Adapter: 5 ID: 0
Read mode : SecureUtilize accurate stream : YesDefeat audio cache : YesMake use of C2 pointers : No
Read offset correction : 102Overread into Lead-In and Lead-Out : NoFill up missing offset samples with silence : YesDelete leading and trailing silent blocks : NoNull samples used in CRC calculations : YesUsed interface : Native Win32 interface for Win NT & 2000
Used output format : User Defined EncoderSelected bitrate : 896 kBit/sQuality : HighAdd ID3 tag : NoCommand line compressor : C:\Program Files\Exact Audio Copy\FLAC\FLAC.EXEAdditional command line options : -V -8 %source%
TOC of the extracted CD
Track | Start | Length | Start sector | End sector --------------------------------------------------------- 1 | 0:00.00 | 22:36.00 | 0 | 101699 2 | 22:36.00 | 5:30.64 | 101700 | 126513 3 | 28:06.64 | 3:02.30 | 126514 | 140193 4 | 31:09.19 | 4:21.62 | 140194 | 159830 5 | 35:31.06 | 3:56.27 | 159831 | 177557 6 | 39:27.33 | 2:19.52 | 177558 | 188034 7 | 41:47.10 | 6:17.39 | 188035 | 216348 8 | 48:04.49 | 6:50.53 | 216349 | 247151 9 | 54:55.27 | 2:20.10 | 247152 | 257661 10 | 57:15.37 | 5:31.54 | 257662 | 282540
Range status and errors
Selected range
Filename D:\temp\Music\Korpijaakko - Works for Guitar\Korpijaakko - Works for Guitar.wav
Peak level 98.3 % Extraction speed 3.0 X Range quality 99.9 % Test CRC 38AAEC1A Copy CRC 38AAEC1A Copy OK
No errors occurred
AccurateRip summary
Track 1 accurately ripped (confidence 1) [B162806E] (AR v2)Track 2 accurately ripped (confidence 1) [F7B38026] (AR v2)Track 3 accurately ripped (confidence 1) [EB4D45E5] (AR v2)Track 4 accurately ripped (confidence 1) [E7494FA5] (AR v2)Track 5 accurately ripped (confidence 1) [AE1FEEFC] (AR v2)Track 6 accurately ripped (confidence 1) [889097B6] (AR v2)Track 7 accurately ripped (confidence 1) [48659480] (AR v2)Track 8 accurately ripped (confidence 1) [D87AB3C9] (AR v2)Track 9 accurately ripped (confidence 1) [22599528] (AR v2)Track 10 accurately ripped (confidence 1) [804AA0AA] (AR v2)
All tracks accurately ripped
End of status report
==== Log checksum D43C4CEB982DD8954C61BC7AC1BE2FD6A27BB83738CDDBECB9737CD9221455BF ====
[teatrix.ru].t9969.torrent 
Торрент: Зарегистрирован [ 2015-10-25 20:37 ] · A5B7D47E35F8821AAF4770DD100FDA6EC521D92D

Скачать .torrent

Скачать

30 KB

Статус: проверено
Скачан: 0 раз
Размер: 182 MB
terms.php



Быстрый ответ

Имя:

      
Для отправки сообщений необходимо включить JavaScript
Показать сообщения:    

Текущее время: 05-Дек 03:26

Часовой пояс: UTC + 3


Вы можете начинать темы
Вы можете отвечать на сообщения
Вы не можете редактировать свои сообщения
Вы не можете удалять свои сообщения
Вы не можете голосовать в опросах
Вы не можете прикреплять файлы к сообщениям
Вы можете скачивать файлы