(Orchestral / Piano) Александр Скрябин, Арам Хачатурян - Mysterium, Piano Concerto in D flat major (Кирилл Кондрашин, Орлова, Любимов, Флиер) - 1998, FLAC (image+.cue) lossless


Статистика раздачи [Обновить пиров]
Размер:  382 MB   |    Зарегистрирован:  1 год 1 месяц   |    Скачан:  0 раз

Полного источника не было: Никогда

 
   
 
 
 

[Цитировать]

Александр Скрябин, Арам Хачатурян - Mysterium, Piano Concerto in D flat major
Жанр: Orchestral / Piano
Год издания диска: 1998
Издатель (лейбл): BMG classics / Мелодия
Дата записи: 1963, 1973
Аудиокодек: FLAC
Тип рипа: image+.cue
Битрейт аудио: lossless
Продолжительность: 01:14:19
Источник: odeonmusic
Наличие сканов в содержимом раздачи: да
Треклист:
Alexander Scriabin (1872-1915):
Universe - Mysterium (reconstruction: Alexander Nemtin)
Aram Khachaturian (1903-1978):
Piano Concerto in D flat major
Исполнители:
Alexei Lyubimov - piano
Irina Orlova - organ
Yakov Flier - piano
USSR State Academy Chorus
Moscow Philharmonic Orchestra
Kyrill Kondrashin - conductor

Содержание индексной карты (.CUE)

REM GENRE ClassicalREM DATE 1998REM DISCID 38116B04REM COMMENT "ExactAudioCopy v1.0b3"PERFORMER "Kirill Kondrashin"TITLE "Scriabin, Khachaturian - Symphonic Works - Kyrill Kondrashin"FILE "Scriabin, Khachaturian - Symphonic Works - Kyrill Kondrashin.flac" WAVE TRACK 01 AUDIO TITLE "Scriabin - Mysterium, Prefatory Act (incomplete, realisation by Alexander Nem..." PERFORMER "Kirill Kondrashin" INDEX 01 00:00:00 TRACK 02 AUDIO TITLE "Khachaturian - Piano Concerto in D flat major (also arranged for 2 pianos)- 1..." PERFORMER "Kirill Kondrashin" INDEX 00 40:11:20 INDEX 01 40:22:60 TRACK 03 AUDIO TITLE "Khachaturian - Piano Concerto in D flat major (also arranged for 2 pianos)- 2..." PERFORMER "Kirill Kondrashin" INDEX 01 54:13:52 TRACK 04 AUDIO TITLE "Khachaturian - Piano Concerto in D flat major (also arranged for 2 pianos)- 3..." PERFORMER "Kirill Kondrashin" INDEX 01 64:55:40

Лог проверки качества

Started at: ïîíåäåëüíèê, 07. 04. 2014. - 9:12.571 file found
1 -===- H:\MUSIC\Not Listened Music\#ORCHESTRAL\Scriabin, Khachaturian - Symphonic Works - Kyrill Kondrashin\Scriabin, Khachaturian - Symphonic Works - Kyrill Kondrashin.flac Extracted successfully Conclusion: this track is CDDA with probability 99% Tempfile successfully deleted.
Finished at: ïîíåäåëüíèê, 07. 04. 2014. - 9:15.45 (operation time: 0:02.47)
[teatrix.ru].t9970.torrent 
Торрент: Зарегистрирован [ 2015-10-25 20:37 ] · CD3698B1A8810CEDC173B1438501A6E7A2678E9A

Скачать .torrent

Скачать

122 KB

Статус: проверено
Скачан: 0 раз
Размер: 382 MB
terms.php



Быстрый ответ

Имя:

      
Для отправки сообщений необходимо включить JavaScript
Показать сообщения:    

Текущее время: 05-Дек 01:24

Часовой пояс: UTC + 3


Вы можете начинать темы
Вы можете отвечать на сообщения
Вы не можете редактировать свои сообщения
Вы не можете удалять свои сообщения
Вы не можете голосовать в опросах
Вы не можете прикреплять файлы к сообщениям
Вы можете скачивать файлы