(Classical, percussion) Oriental Landscapes: Chen Yi, Thea Musgrave, Zhou Long, Alan Hovhaness - Evelyn Glennie, Singapore Symphony Orchestra, Lan Shui - 2002, FLAC (image+.cue) lossless


Статистика раздачи [Обновить пиров]
Размер:  241 MB   |    Зарегистрирован:  1 год 1 месяц   |    Скачан:  0 раз

Полного источника не было: Никогда

 
   
 
 
 

[Цитировать]

Oriental Landscapes: Chen Yi, Thea Musgrave, Zhou Long, Alan Hovhaness - Evelyn Glennie, Singapore Symphony Orchestra, Lan Shui
Жанр: Classical, percussion
Страна-производитель диска: Sweden
Год издания диска: 2002
Издатель (лейбл): BIS
Номер по каталогу: BIS-CD-1222
Дата записи: 2001
Аудиокодек: FLAC
Тип рипа: image+.cue
Битрейт аудио: lossless
Продолжительность: 69:11
Источник: собственный рип
Наличие сканов в содержимом раздачи: да
Треклист:
Chen Yi (b.1953)
[1]-[3] Percussion Concerto (1998)
Thea Musgrave (b.1928)
[4]-[7] Journey through a Japanese Landscape (1994)
Concerto for Solo Marimba and Wind Orchestra
Zhou Long (b.1953)
[8] Out of Thng Court (2000)
for Tang Ensemble and Orchestra
Alan Hovhaness (1911-2000)
[9] Fantasy on Japanese Wood Prints, Op. 211 (1965)
for xylophone and orchestra
Исполнители:
Evelyn Glennie percussion
Singapore Symphony Orchestra
Lan Shui
conductor

Лог создания рипа

Exact Audio Copy V1.0 beta 3 from 29. August 2011
EAC extraction logfile from 23. March 2014, 2:02
Evelyn Glennie, Singapore Symphony Orchestra, Lan Shui / Oriental Landscapes
Used drive : HL-DT-STDVDRAM GSA-4083N Adapter: 1 ID: 0
Read mode : SecureUtilize accurate stream : YesDefeat audio cache : YesMake use of C2 pointers : No
Read offset correction : 667Overread into Lead-In and Lead-Out : NoFill up missing offset samples with silence : YesDelete leading and trailing silent blocks : NoNull samples used in CRC calculations : YesUsed interface : Native Win32 interface for Win NT & 2000
Used output format : User Defined EncoderSelected bitrate : 896 kBit/sQuality : HighAdd ID3 tag : NoCommand line compressor : C:\Program Files\Exact Audio Copy\Flac\flac.exeAdditional command line options : -V -8 %source%
TOC of the extracted CD
Track | Start | Length | Start sector | End sector --------------------------------------------------------- 1 | 0:00.00 | 6:38.72 | 0 | 29921 2 | 6:38.72 | 7:21.45 | 29922 | 63041 3 | 14:00.42 | 6:26.63 | 63042 | 92054 4 | 20:27.30 | 8:40.17 | 92055 | 131071 5 | 29:07.47 | 4:12.18 | 131072 | 149989 6 | 33:19.65 | 5:22.60 | 149990 | 174199 7 | 38:42.50 | 5:55.42 | 174200 | 200866 8 | 44:38.17 | 9:29.03 | 200867 | 243544 9 | 54:07.20 | 15:03.55 | 243545 | 311324
Range status and errors
Selected range
Filename J:\New Music\BIS-CD-1222 - Oriental Landscapes\Oriental Landscapes.wav
Peak level 100.0 % Extraction speed 2.7 X Range quality 99.9 % Test CRC ED5C4246 Copy CRC ED5C4246 Copy OK
No errors occurred
AccurateRip summary
Track 1 accurately ripped (confidence 2) [107926CD] (AR v2)Track 2 accurately ripped (confidence 2) [8D207C0E] (AR v2)Track 3 accurately ripped (confidence 2) [1D197E7F] (AR v2)Track 4 accurately ripped (confidence 2) [26436111] (AR v2)Track 5 accurately ripped (confidence 2) [E70A3D20] (AR v2)Track 6 accurately ripped (confidence 2) [4DADCA56] (AR v2)Track 7 accurately ripped (confidence 2) [20064AEC] (AR v2)Track 8 accurately ripped (confidence 2) [681311B9] (AR v2)Track 9 accurately ripped (confidence 2) [47449007] (AR v2)
All tracks accurately ripped
End of status report
==== Log checksum A53AE9AF2D4B485AFDAEBAF65201FE3AB6510E93D92395D739A29B07DE445911 ====
[teatrix.ru].t9971.torrent 
Торрент: Зарегистрирован [ 2015-10-25 20:37 ] · B334299E87C8E913B7DFCB433B4DFA633FCDC20E

Скачать .torrent

Скачать

39 KB

Статус: проверено
Скачан: 0 раз
Размер: 241 MB
terms.php



Быстрый ответ

Имя:

      
Для отправки сообщений необходимо включить JavaScript
Показать сообщения:    

Текущее время: 05-Дек 03:27

Часовой пояс: UTC + 3


Вы можете начинать темы
Вы можете отвечать на сообщения
Вы не можете редактировать свои сообщения
Вы не можете удалять свои сообщения
Вы не можете голосовать в опросах
Вы не можете прикреплять файлы к сообщениям
Вы можете скачивать файлы