(Classical) А. Цыганков - Произведения для домры с оркестром (Будашкин, Цыганков, Шостакович, Шендерев) - 2003, FLAC (tracks+.cue) lossless


Статистика раздачи [Обновить пиров]
Размер:  663 MB   |    Зарегистрирован:  1 год 1 месяц   |    Скачан:  0 раз

Полного источника не было: Никогда

Личеров:  1  [  0 KB/s  ]   Подробная статистика пиров
 
   
 
 
 

[Цитировать]

Сборник концертов - А. Цыганков (домра), оркестр им.Н.П.Осипова: Будашкин, Цыганков, Шостакович, Шендерев
Жанр: Classical
Страна-производитель диска: Россия
Год издания диска: 2003
Дата записи: 2003
Аудиокодек: FLAC
Тип рипа: tracks+.cue
Битрейт аудио: lossless
Продолжительность: 01:08:20
Источник: собственный рип
Наличие сканов в содержимом раздачи: да
Треклист:
01. А. Цыганков. «Увертюра-рапсодия на русские темы» для оркестра русских народных инструментов.
02. Н. Будашкин. Концерт для домры с оркестром в 3-х частях.
03. А. Цыганков. «Поэма памяти Д. Шостаковича» для оркестра русских народных инструментов с солирующей трубой.
04. Д. Шостакович. «Бурлеска»- финал концерта для скрипки с оркестром № 1 в переложении для домры с оркестром.
05. Г. Шендерев. Концерт для домры с оркестром, 2 и 3 части.
06. А. Цыганков. Вальс на тему русской народной песни «По Муромской дорожке» из сюиты «Мелодии старого города»
07. А. Цыганков. «Мар дяндя» - вариации на тему цыганской песни.
08. А. Цыганков. Вариации на тему русской народной песни «Травушка-муравушка»
09. А. Цыганков. «Интродукция и Чардаш»
Исполнители:
Все записи сделаны на концертах Александра Цыганкова и Национального академического оркестра народных инструментов России им.Н.П.Осипова под управлением Народного артиста России, лауреата Государственной премии России, профессора Н.Н.Калинина.
Концерты состоялись 11 марта 2003г. и 16 ноября 2003г. в Большом зале Российской Академии музыки им. Гнесиных.

Лог создания рипа

Exact Audio Copy V1.0 beta 3 from 29. August 2011
Отчёт EAC об извлечении, выполненном 26. марта 2014, 18:28
Александр Цыганков / Концертные записи А.Цыганкова с оркестром им.Осипова
Дисковод: HL-DT-STDVDRAM GH24NS95 Adapter: 1 ID: 1
Режим чтения : ДостоверностьИспользование точного потока : ДаОтключение кэша аудио : ДаИспользование указателей C2 : Нет
Коррекция смещения при чтении : 6Способность читать области Lead-in и Lead-out : НетЗаполнение пропущенных сэмплов тишиной : ДаУдаление блоков с тишиной в начале и конце : НетПри вычислениях CRC использовались нулевые сэмплы : ДаИнтерфейс : Встроенный Win32-интерфейс для Win NT/2000Обработка зазоров : Добавлено к предыдущему треку
Выходной формат : Пользовательский кодировщикВыбранный битрейт : 192 kBit/sКачество : ВысокийДобавление ID3-тега : НетУтилита сжатия : C:\Program Files\Exact Audio Copy\Flac\flac.exeДополнительные параметры : -V -8 -T "Genre=%genre%" -T "Artist=%artist%" -T "Title=%title%" -T "Album=%albumtitle%" -T "Date=%year%" -T "Tracknumber=%tracknr%" -T "Comment=%comment%" %source%
TOC извлечённого CD
Трек | Старт | Длительность | Начальный сектор | Конечный сектор --------------------------------------------------------------------- 1 | 0:00.00 | 8:33.29 | 0 | 38503 2 | 8:33.29 | 18:58.74 | 38504 | 123927 3 | 27:32.28 | 9:36.00 | 123928 | 167127 4 | 37:08.28 | 4:43.66 | 167128 | 188418 5 | 41:52.19 | 10:34.09 | 188419 | 235977 6 | 52:26.28 | 4:43.14 | 235978 | 257216 7 | 57:09.42 | 2:40.72 | 257217 | 269288 8 | 59:50.39 | 3:33.44 | 269289 | 285307 9 | 63:24.08 | 5:23.34 | 285308 | 309566
Трек 1
Имя файла D:\Музыка\Цыганков с ОРНИ\(01) «Увертюра-рапсодия на русские темы» для оркестра русских народных инструментов - Александр Цыганков.wav
Длина предзазора 0:00:02.00
Пиковый уровень 59.6 % Скорость извлечения 1.2 X Качество трека 99.8 % CRC теста A65D2C26 CRC копии A65D2C26 Копирование... OK
Трек 2
Имя файла D:\Музыка\Цыганков с ОРНИ\(02) Концерт для домры с оркестром в 3-х частях - Александр Цыганков.wav
Длина предзазора 0:00:02.00
Пиковый уровень 98.4 % Скорость извлечения 3.0 X Качество трека 100.0 % CRC теста E21AE546 CRC копии E21AE546 Копирование... OK
Трек 3
Имя файла D:\Музыка\Цыганков с ОРНИ\(03) «Поэма памяти Д. Шостаковича» для оркестра русских народных инструментов с солирующей трубой - Александр Цыганков.wav
Длина предзазора 0:00:02.00
Пиковый уровень 87.6 % Скорость извлечения 1.9 X Качество трека 99.9 % CRC теста 461712AE CRC копии 461712AE Копирование... OK
Трек 4
Имя файла D:\Музыка\Цыганков с ОРНИ\(04) «Бурлеска»- финал концерта для скрипки с оркестром № 1 в переложении для домры с оркестром - Александр Цыганков.wav
Длина предзазора 0:00:02.00
Пиковый уровень 80.3 % Скорость извлечения 1.8 X Качество трека 99.9 % CRC теста BBBD736E CRC копии BBBD736E Копирование... OK
Трек 5
Имя файла D:\Музыка\Цыганков с ОРНИ\(05) Концерт для домры с оркестром, 2 и 3 части - Александр Цыганков.wav
Длина предзазора 0:00:02.00
Пиковый уровень 76.4 % Скорость извлечения 2.2 X Качество трека 99.9 % CRC теста EB718E78 CRC копии EB718E78 Копирование... OK
Трек 6
Имя файла D:\Музыка\Цыганков с ОРНИ\(06) Вальс на тему русской народной песни «По Муромской дорожке» из сюиты «Мелодии старого города» - Александр Цыганков.wav
Длина предзазора 0:00:02.00
Пиковый уровень 90.7 % Скорость извлечения 2.1 X Качество трека 99.9 % CRC теста 6D003A2C CRC копии 6D003A2C Копирование... OK
Трек 7
Имя файла D:\Музыка\Цыганков с ОРНИ\(07) «Мар дяндя» - вариации на тему цыганской песни - Александр Цыганков.wav
Длина предзазора 0:00:02.00
Пиковый уровень 87.0 % Скорость извлечения 2.1 X Качество трека 100.0 % CRC теста 68700FAB CRC копии 68700FAB Копирование... OK
Трек 8
Имя файла D:\Музыка\Цыганков с ОРНИ\(08) Вариации на тему русской народной песни «Травушка-муравушка» - Александр Цыганков.wav
Длина предзазора 0:00:02.00
Пиковый уровень 92.4 % Скорость извлечения 2.3 X Качество трека 100.0 % CRC теста 2B90CD3C CRC копии 2B90CD3C Копирование... OK
Трек 9
Имя файла D:\Музыка\Цыганков с ОРНИ\(09) «Интродукция и Чардаш» - Александр Цыганков.wav
Длина предзазора 0:00:02.00
Пиковый уровень 83.2 % Скорость извлечения 2.5 X Качество трека 100.0 % CRC теста 3F58C2C0 CRC копии 3F58C2C0 Копирование... OK
Ошибок не произошло
Конец отчёта
==== Контрольная сумма отчёта 7870FB8546FB95FF3C4D4F3EC963F3774ED01EC852E5A2F1C74F114992353745 ====

Содержание индексной карты (.CUE)

REM GENRE ClassicalREM DATE 2003REM DISCID 6F101F09REM COMMENT "ExactAudioCopy v1.0b3"PERFORMER "Александр Цыганков"TITLE "Концертные записи А.Цыганкова с оркестром им.Осипова"FILE "(01) «Увертюра-рапсодия на русские темы» для оркестра русских народных инструментов - Александр Цыганков.wav" WAVE TRACK 01 AUDIO TITLE "«Увертюра-рапсодия на русские темы» для оркестра русских народных инструментов" PERFORMER "Александр Цыганков" FLAGS DCP INDEX 01 00:00:00 TRACK 02 AUDIO TITLE "Концерт для домры с оркестром в 3-х частях" PERFORMER "Александр Цыганков" FLAGS DCP INDEX 00 08:31:29FILE "(02) Концерт для домры с оркестром в 3-х частях - Александр Цыганков.wav" WAVE INDEX 01 00:00:00 TRACK 03 AUDIO TITLE "«Поэма памяти Д. Шостаковича» для оркестра русских народных инструментов с со..." PERFORMER "Александр Цыганков" FLAGS DCP INDEX 00 18:56:74FILE "(03) «Поэма памяти Д. Шостаковича» для оркестра русских народных инструментов с солирующей трубой - Александр Цыганков.wav" WAVE INDEX 01 00:00:00 TRACK 04 AUDIO TITLE "«Бурлеска»- финал концерта для скрипки с оркестром № 1 в переложении для домр..." PERFORMER "Александр Цыганков" FLAGS DCP INDEX 00 09:34:00FILE "(04) «Бурлеска»- финал концерта для скрипки с оркестром № 1 в переложении для домры с оркестром - Александр Цыганков.wav" WAVE INDEX 01 00:00:00 TRACK 05 AUDIO TITLE "Концерт для домры с оркестром, 2 и 3 части" PERFORMER "Александр Цыганков" FLAGS DCP INDEX 00 04:41:66FILE "(05) Концерт для домры с оркестром, 2 и 3 части - Александр Цыганков.wav" WAVE INDEX 01 00:00:00 TRACK 06 AUDIO TITLE "Вальс на тему русской народной песни «По Муромской дорожке» из сюиты «Мелодии..." PERFORMER "Александр Цыганков" FLAGS DCP INDEX 00 10:32:09FILE "(06) Вальс на тему русской народной песни «По Муромской дорожке» из сюиты «Мелодии старого города» - Александр Цыганков.wav" WAVE INDEX 01 00:00:00 TRACK 07 AUDIO TITLE "«Мар дяндя» - вариации на тему цыганской песни" PERFORMER "Александр Цыганков" FLAGS DCP INDEX 00 04:41:14FILE "(07) «Мар дяндя» - вариации на тему цыганской песни - Александр Цыганков.wav" WAVE INDEX 01 00:00:00 TRACK 08 AUDIO TITLE "Вариации на тему русской народной песни «Травушка-муравушка»" PERFORMER "Александр Цыганков" FLAGS DCP INDEX 00 02:38:72FILE "(08) Вариации на тему русской народной песни «Травушка-муравушка» - Александр Цыганков.wav" WAVE INDEX 01 00:00:00 TRACK 09 AUDIO TITLE "«Интродукция и Чардаш»" PERFORMER "Александр Цыганков" FLAGS DCP INDEX 00 03:31:44FILE "(09) «Интродукция и Чардаш» - Александр Цыганков.wav" WAVE INDEX 01 00:00:00

Лог проверки качества

AUDIOCHECKER v2.0 beta (build 457) - by Dester - opdester@freemail.hu~~~~~~~~~~~~~~~~~~~~~~~~~~~~~~~~~~
Начато: среда, 26. 03. 2014. - 19:01.51Найдено файлов: 9
1 -===- E:\Torrents\А.Цыганков с оркестром им.Осипова\(01) «Увертюра-рапсодия на русские темы» для оркестра русских народных инструментов - Александр Цыганков.flac Извлечение успешно выполнено Заключение: этот трек - CDDA с вероятностью 100% Временный файл удалён.
2 -===- E:\Torrents\А.Цыганков с оркестром им.Осипова\(02) Концерт для домры с оркестром в 3-х частях - Александр Цыганков.flac Извлечение успешно выполнено Заключение: этот трек - CDDA с вероятностью 76% Временный файл удалён.
3 -===- E:\Torrents\А.Цыганков с оркестром им.Осипова\(03) «Поэма памяти Д. Шостаковича» для оркестра русских народных инструментов с солирующей трубой - Александр Цыганков.flac Извлечение успешно выполнено Заключение: этот трек - CDDA с вероятностью 100% Временный файл удалён.
4 -===- E:\Torrents\А.Цыганков с оркестром им.Осипова\(04) «Бурлеска»- финал концерта для скрипки с оркестром № 1 в переложении для домры с оркестром - Александр Цыганков.flac Извлечение успешно выполнено Заключение: этот трек - CDDA с вероятностью 100% Временный файл удалён.
5 -===- E:\Torrents\А.Цыганков с оркестром им.Осипова\(05) Концерт для домры с оркестром, 2 и 3 части - Александр Цыганков.flac Извлечение успешно выполнено Заключение: этот трек - CDDA с вероятностью 100% Временный файл удалён.
6 -===- E:\Torrents\А.Цыганков с оркестром им.Осипова\(06) Вальс на тему русской народной песни «По Муромской дорожке» из сюиты «Мелодии старого города» - Александр Цыганков.flac Извлечение успешно выполнено Заключение: этот трек - CDDA с вероятностью 100% Временный файл удалён.
7 -===- E:\Torrents\А.Цыганков с оркестром им.Осипова\(07) «Мар дяндя» - вариации на тему цыганской песни - Александр Цыганков.flac Извлечение успешно выполнено Заключение: этот трек - CDDA с вероятностью 100% Временный файл удалён.
8 -===- E:\Torrents\А.Цыганков с оркестром им.Осипова\(08) Вариации на тему русской народной песни «Травушка-муравушка» - Александр Цыганков.flac Извлечение успешно выполнено Заключение: этот трек - CDDA с вероятностью 100% Временный файл удалён.
9 -===- E:\Torrents\А.Цыганков с оркестром им.Осипова\(09) «Интродукция и Чардаш» - Александр Цыганков.flac Извлечение успешно выполнено Заключение: этот трек - CDDA с вероятностью 100% Временный файл удалён.
Завершено: среда, 26. 03. 2014. - 19:13.17 (Время операции: 0:11.25)
[teatrix.ru].t9972.torrent 
Торрент: Зарегистрирован [ 2015-10-25 20:37 ] · D1EE9EBD8B6C717EBEDBB8A6E5659130B7A5B290

Скачать .torrent

Скачать

16 KB

Статус: проверено
Скачан: 0 раз
Размер: 663 MB
terms.php



Быстрый ответ

Имя:

      
Для отправки сообщений необходимо включить JavaScript
Показать сообщения:    

Текущее время: 09-Дек 16:35

Часовой пояс: UTC + 3


Вы можете начинать темы
Вы можете отвечать на сообщения
Вы не можете редактировать свои сообщения
Вы не можете удалять свои сообщения
Вы не можете голосовать в опросах
Вы не можете прикреплять файлы к сообщениям
Вы можете скачивать файлы